VERSION	0.00.00	1.03.00
FES_MODE	0
BPM_DEF	230.000	230.000	230.000	230.000
MET_DEF	4	4
RESOLUTION	384
CLK_DEF	384
COMPATIBLE_CODE	MA2

BPM	0	0	230.000
MET	0	0	4	4
MET	18	0	4	6
MET	19	192	4	5
MET	20	288	4	6
MET	22	96	4	5
MET	23	192	4	6
MET	25	0	4	5
MET	26	96	4	6
MET	29	96	4	7
MET	36	96	4	3
MET	37	288	4	2
MET	38	96	4	7
MET	43	192	4	6
MET	45	0	4	3
MET	45	288	4	4
MET	61	288	4	3
MET	62	192	4	4
MET	94	192	4	5
MET	99	192	8	11
MET	102	96	8	6
MET	103	0	4	2
MET	103	192	8	3
MET	105	144	8	5
MET	106	0	4	2
MET	106	192	4	7
MET	120	192	4	5
MET	131	288	4	6

STR	2	0	0
SCR	2	0	0	96	1056	6
HLD	2	0	7	384
TAP	4	0	7
TAP	5	0	7
HLD	6	0	0	384
STR	6	0	7
SCL	6	0	7	96	1056	1
TAP	8	0	0
TAP	9	0	0
STR	10	0	1
SXL	10	0	1	96	1056	4
HLD	10	0	6	384
TAP	12	0	6
TAP	13	0	6
HLD	14	0	2	384
STR	14	0	6
SXR	14	0	6	96	1056	3
TAP	16	0	2
HLD	17	0	2	576
TAP	19	0	2
TAP	19	96	3
HLD	19	192	1	192
TAP	20	0	7
TAP	20	96	7
TAP	20	192	4
TAP	20	192	6
TAP	20	288	3
TAP	20	288	5
TAP	21	0	2
TAP	21	0	4
TAP	21	96	1
TAP	21	96	3
TAP	21	192	2
TAP	21	192	4
TAP	21	288	5
TAP	22	0	4
HLD	22	96	6	192
TAP	22	288	0
TAP	23	0	0
TAP	23	96	0
TAP	23	144	7
TAP	23	240	7
TAP	23	288	0
TAP	24	0	0
TAP	24	0	7
TAP	24	96	1
TAP	24	96	6
TAP	24	192	3
STR	24	192	4
SCR	24	192	4	96	144	7
TAP	24	288	3
HLD	25	0	3	96
TAP	25	192	2
TAP	25	192	3
TAP	25	288	1
TAP	25	288	4
TAP	26	0	3
TAP	26	48	4
TAP	26	96	3
TAP	26	192	3
TAP	26	192	4
TAP	26	288	2
TAP	26	288	5
TAP	27	0	1
TAP	27	0	6
STR	27	96	0
SCR	27	96	0	96	144	3
TAP	27	96	7
TAP	27	192	7
HLD	27	288	7	96
TAP	28	96	6
TAP	28	96	7
TAP	28	192	0
TAP	28	192	5
TAP	28	288	7
TAP	28	336	0
STR	29	0	7
SF_	29	0	7	96	144	3
STR	30	96	1
SLR	30	96	1	96	192	7
STR	31	0	6
SLL	31	0	6	96	192	0
TAP	32	0	2
TAP	32	96	2
TAP	32	144	3
TAP	32	192	2
TAP	32	240	3
TAP	32	288	2
TAP	33	0	2
TAP	33	0	3
TAP	33	96	2
TAP	33	96	3
TAP	33	192	1
TAP	33	192	4
TAP	33	288	5
TAP	34	0	5
TAP	34	48	4
TAP	34	96	5
TAP	34	144	4
TAP	34	192	5
TAP	34	288	4
TAP	34	288	5
TAP	35	0	4
TAP	35	0	5
TAP	35	96	3
TAP	35	96	6
TAP	35	192	2
TAP	35	288	2
TAP	35	336	3
TAP	36	0	2
TAP	36	96	1
TAP	36	96	4
TAP	36	192	5
TAP	36	240	4
TAP	36	288	5
TAP	37	0	3
TAP	37	0	6
TAP	37	96	6
TAP	37	144	7
TAP	37	192	6
TAP	37	288	0
TAP	37	288	5
TAP	38	0	1
TAP	38	48	0
TAP	38	96	1
TAP	38	192	2
STR	38	192	7
SI_	38	192	7	96	96	3
BRK	38	288	0
TAP	39	96	2
TAP	39	192	1
TAP	39	192	3
TAP	39	288	1
TAP	39	336	0
TAP	40	0	1
TAP	40	96	6
TAP	40	144	7
TAP	40	192	6
TAP	40	288	5
TAP	40	288	7
TAP	41	0	5
TAP	41	96	4
TAP	41	96	6
TAP	41	192	6
TAP	41	240	7
TAP	41	288	6
TAP	42	0	1
TAP	42	48	0
TAP	42	96	1
TAP	42	192	0
TAP	42	192	2
TAP	42	288	2
TAP	43	0	1
TAP	43	0	3
TAP	43	96	2
TAP	43	144	3
TAP	43	192	2
TAP	43	288	5
TAP	43	336	4
TAP	44	0	5
TAP	44	96	4
TAP	44	96	6
STR	44	192	6
SI_	44	192	6	96	96	1
STR	44	336	2
SI_	44	336	2	96	96	5
STR	45	96	7
SI_	45	96	7	96	96	4
STR	45	240	3
SI_	45	240	3	96	96	0
BRK	46	0	7
BRK	46	96	7
BRK	46	192	7
STR	46	288	1
SCR	46	288	1	96	288	0
HLD	46	288	5	384
TAP	48	96	1
TAP	48	96	5
HLD	48	288	2	384
STR	48	288	6
SCL	48	288	6	96	288	7
TAP	50	96	2
TAP	50	96	6
TAP	50	288	1
TAP	51	0	0
TAP	51	0	2
TAP	51	96	6
TAP	51	192	5
TAP	51	192	7
TAP	51	288	2
TAP	52	0	1
TAP	52	0	3
TAP	52	96	5
TAP	52	192	4
TAP	52	192	6
HLD	52	288	3	96
TAP	53	0	4
TAP	53	48	4
TAP	53	144	3
TAP	53	192	4
HLD	53	288	4	96
TAP	54	0	3
TAP	54	48	3
TAP	54	144	4
TAP	54	192	3
TAP	54	288	2
STR	54	288	5
SXL	54	288	5	96	288	3
TAP	56	96	1
TAP	56	96	6
STR	56	288	1
SXR	56	288	1	96	288	4
TAP	56	288	6
TAP	58	96	0
TAP	58	96	7
TAP	58	288	1
TAP	58	288	6
TAP	59	0	2
TAP	59	48	2
TAP	59	144	3
TAP	59	240	1
TAP	59	240	4
TAP	59	336	5
TAP	60	0	5
TAP	60	96	4
TAP	60	192	3
TAP	60	192	6
HLD	60	288	2	144
STR	60	288	3
SI_	60	288	3	96	96	7
STR	61	192	4
SI_	61	192	4	96	96	0
HLD	61	192	5	144
TAP	62	96	0
TAP	62	96	7
TAP	62	240	1
TAP	62	240	6
BRK	63	0	7
BRK	63	96	7
TAP	63	192	0
TAP	63	288	1
TAP	63	288	7
TAP	64	0	2
TAP	64	48	2
TAP	64	96	3
TAP	64	192	2
TAP	64	192	4
TAP	64	288	2
TAP	64	336	3
TAP	65	48	5
TAP	65	96	4
STR	65	192	6
SI_	65	192	6	96	96	3
TAP	65	288	7
TAP	65	336	7
TAP	66	48	0
TAP	66	48	5
STR	66	192	1
SI_	66	192	1	96	96	4
TAP	66	288	0
TAP	66	336	0
TAP	67	48	2
TAP	67	48	7
TAP	67	192	5
TAP	67	288	4
TAP	67	288	6
TAP	68	0	5
TAP	68	48	5
TAP	68	96	4
TAP	68	192	3
TAP	68	192	5
TAP	68	288	5
TAP	68	336	4
TAP	69	48	2
TAP	69	96	3
HLD	69	192	1	144
HLD	69	336	0	144
TAP	70	96	7
STR	70	192	7
SCL	70	192	7	96	192	0
STR	71	192	1
SI_	71	192	1	96	96	4
TAP	71	288	7
STR	72	0	6
SI_	72	0	6	96	96	3
TAP	72	96	0
STR	72	192	1
SI_	72	192	1	96	96	4
TAP	72	288	7
STR	73	0	6
SI_	73	0	6	96	96	3
TAP	73	96	0
HLD	73	192	1	144
HLD	73	336	3	144
TAP	74	96	4
STR	74	192	4
SCR	74	192	4	96	144	1
TAP	75	192	2
TAP	75	240	3
TAP	75	288	2
TAP	75	336	3
TAP	76	0	1
TAP	76	48	4
TAP	76	96	1
TAP	76	144	4
TAP	76	192	0
TAP	76	240	5
TAP	76	288	0
TAP	76	336	5
TAP	77	0	7
TAP	77	48	6
TAP	77	96	7
TAP	77	192	0
TAP	77	192	5
TAP	77	288	6
TAP	77	336	3
TAP	78	0	5
TAP	78	48	2
TAP	78	96	4
TAP	78	144	1
HLD	78	192	3	96
TAP	78	288	1
TAP	78	336	4
TAP	79	0	2
TAP	79	48	5
TAP	79	96	3
TAP	79	144	6
BRK	79	192	4
TAP	81	192	0
TAP	81	192	1
STR	81	288	1
SI_	81	288	1	96	96	4
TAP	81	336	1
BRK	82	48	7
TAP	82	192	6
TAP	82	192	7
STR	82	288	6
SI_	82	288	6	96	96	3
TAP	82	336	6
BRK	83	48	0
TAP	83	192	1
TAP	83	192	3
TAP	83	288	2
TAP	83	336	3
TAP	84	48	3
TAP	84	96	4
TAP	84	192	4
TAP	84	192	6
TAP	84	288	5
TAP	84	336	4
TAP	85	48	4
TAP	85	96	3
HLD	85	192	2	96
HLD	85	192	3	96
HLD	85	336	1	96
HLD	85	336	4	96
TAP	86	96	0
TAP	86	96	5
STR	86	192	6
SI_	86	192	6	96	96	2
STR	86	192	7
SI_	86	192	7	96	96	3
TAP	87	192	0
TAP	87	192	1
TAP	87	288	0
TAP	87	288	1
TAP	88	0	2
TAP	88	0	3
TAP	88	96	2
TAP	88	96	3
TAP	88	192	4
TAP	88	192	5
TAP	88	288	4
TAP	88	288	5
TAP	89	0	6
TAP	89	0	7
TAP	89	96	6
TAP	89	96	7
HLD	89	192	1	144
HLD	89	336	2	144
TAP	90	96	3
STR	90	192	4
SCR	90	192	4	96	192	3
STR	91	192	4
SUR	91	192	4	96	96	1
STR	91	192	5
SCR	91	192	5	96	96	0
STR	92	192	2
SCL	92	192	2	96	96	7
STR	92	192	3
SUL	92	192	3	96	96	6
STR	93	192	3
SXR	93	192	3	96	288	0
STR	93	192	4
SXL	93	192	4	96	288	7
TAP	95	0	0
TAP	95	48	7
TAP	95	96	0
HLD	95	192	2	96
TAP	95	288	4
HLD	95	336	4	96
TAP	96	48	3
TAP	96	96	3
TAP	96	96	4
TAP	96	192	2
TAP	96	192	5
HLD	96	288	5	96
TAP	97	0	3
HLD	97	48	3	96
TAP	97	144	4
TAP	97	192	3
TAP	97	192	4
TAP	97	288	2
TAP	97	288	5
HLD	98	0	1	96
TAP	98	96	7
HLD	98	144	7	96
TAP	98	240	0
TAP	98	288	0
TAP	98	288	7
TAP	99	0	1
TAP	99	0	6
HLD	99	96	6	96
TAP	99	192	0
HLD	99	240	0	96
TAP	99	336	7
TAP	100	0	0
TAP	100	0	7
TAP	100	96	1
TAP	100	96	6
HLD	100	192	0	96
TAP	100	288	7
HLD	100	336	7	96
TAP	101	48	1
HLD	101	96	1	96
TAP	101	192	6
TAP	101	240	1
TAP	101	240	6
HLD	101	336	1	96
TAP	102	48	5
HLD	102	96	5	96
TAP	102	192	2
HLD	102	240	2	96
TAP	102	336	4
TAP	103	0	2
TAP	103	0	4
TAP	103	96	2
TAP	103	144	4
HLD	103	192	3	192
TAP	104	0	5
HLD	104	48	5	144
TAP	104	192	2
HLD	104	240	2	96
TAP	104	336	4
HLD	105	0	4	240
TAP	105	240	3
TAP	105	288	4
HLD	105	336	3	192
TAP	106	144	4
TAP	106	192	3
STR	106	240	5
SCR	106	240	5	96	192	2
TAP	106	288	2
TAP	107	288	5
TAP	107	336	4
TAP	108	0	6
TAP	108	96	3
TAP	108	96	4
TAP	108	192	2
TAP	108	240	3
TAP	108	288	1
TAP	109	0	0
TAP	109	0	2
TAP	109	96	0
TAP	109	96	1
TAP	109	192	2
TAP	109	240	3
TAP	109	288	1
TAP	110	0	3
TAP	110	0	4
TAP	110	96	5
TAP	110	144	4
TAP	110	192	6
TAP	110	288	5
TAP	110	288	7
TAP	111	0	6
TAP	111	0	7
TAP	111	96	6
TAP	111	144	7
TAP	111	192	5
TAP	111	288	0
TAP	111	288	7
TAP	112	0	1
TAP	112	48	0
TAP	112	96	2
TAP	112	192	1
TAP	112	192	3
TAP	112	288	3
TAP	112	288	4
TAP	113	0	2
TAP	113	0	5
TAP	113	96	1
TAP	113	96	6
STR	113	192	0
SCR	113	192	0	96	144	3
STR	113	192	7
SCL	113	192	7	96	144	4
TAP	114	192	0
TAP	114	192	1
TAP	114	288	1
TAP	114	336	0
STR	115	0	1
SI_	115	0	1	96	48	4
STR	115	96	7
SI_	115	96	7	96	48	3
STR	115	192	0
SI_	115	192	0	96	48	4
TAP	115	288	6
TAP	116	0	6
TAP	116	96	0
TAP	116	96	5
TAP	116	192	6
TAP	116	240	7
STR	116	288	6
SI_	116	288	6	96	48	3
STR	117	0	0
SI_	117	0	0	96	48	4
STR	117	96	7
SI_	117	96	7	96	48	3
TAP	117	192	1
TAP	117	288	1
TAP	118	0	2
TAP	118	0	7
TAP	118	96	2
TAP	118	144	3
STR	118	192	2
SI_	118	192	2	96	48	5
STR	118	288	6
SI_	118	288	6	96	48	3
STR	119	0	0
SI_	119	0	0	96	48	4
TAP	119	96	7
TAP	119	192	7
TAP	119	288	4
TAP	119	288	6
TAP	120	0	5
TAP	120	48	4
STR	120	96	5
SI_	120	96	5	96	48	2
STR	120	192	1
SI_	120	192	1	96	48	4
STR	120	288	7
SI_	120	288	7	96	48	3
TAP	121	0	0
TAP	121	96	0
STR	121	192	0
SF_	121	192	0	96	384	4
TAP	123	192	3
TAP	123	288	3
STR	124	0	3
SF_	124	0	3	96	384	7
TAP	126	0	7
TAP	126	96	7
TAP	126	192	0
TAP	126	192	1
TAP	126	288	2
TAP	126	336	2
TAP	127	0	1
TAP	127	0	3
TAP	127	96	4
TAP	127	144	4
TAP	127	192	3
TAP	127	240	3
TAP	127	288	4
TAP	127	288	5
TAP	128	0	5
TAP	128	48	5
TAP	128	96	4
TAP	128	96	6
TAP	128	192	3
TAP	128	240	3
TAP	128	288	4
TAP	128	336	4
TAP	129	0	2
TAP	129	0	3
TAP	129	96	1
TAP	129	144	1
TAP	129	192	0
TAP	129	192	2
TAP	129	288	7
TAP	129	336	7
TAP	130	0	0
TAP	130	48	0
TAP	130	96	6
TAP	130	96	7
TAP	130	192	6
TAP	130	240	6
TAP	130	288	5
TAP	130	288	7
TAP	131	0	0
TAP	131	48	0
TAP	131	96	7
TAP	131	144	7
STR	132	288	6
SI_	132	288	6	96	672	2
STR	132	288	7
SSR	132	288	7	96	672	3
STR	135	288	0
SSL	135	288	0	96	672	4
STR	135	288	1
SI_	135	288	1	96	672	5
TAP	138	96	5
TAP	138	144	4
TAP	138	192	3
BRK	138	240	2

T_REC_TAP	441
T_REC_BRK	10
T_REC_XTP	0
T_REC_HLD	45
T_REC_XHO	0
T_REC_STR	60
T_REC_BST	0
T_REC_XST	0
T_REC_TTP	0
T_REC_THO	0
T_REC_SLD	60
T_REC_ALL	616
T_NUM_TAP	501
T_NUM_BRK	10
T_NUM_HLD	45
T_NUM_SLD	60
T_NUM_ALL	616
T_JUDGE_TAP	511
T_JUDGE_HLD	156
T_JUDGE_SLD	60
T_JUDGE_ALL	727
TTM_EACHPAIRS	117
TTM_SCR_TAP	250500
TTM_SCR_BRK	26000
TTM_SCR_HLD	45000
TTM_SCR_SLD	90000
TTM_SCR_ALL	411500
TTM_SCR_S	398200
TTM_SCR_SS	410500
TTM_RAT_ACV	10024

