VERSION	0.00.00	1.03.00
FES_MODE	0
BPM_DEF	230.000	230.000	230.000	230.000
MET_DEF	4	4
RESOLUTION	384
CLK_DEF	384
COMPATIBLE_CODE	MA2

BPM	0	0	230.000
MET	0	0	4	4
MET	18	0	4	6
MET	19	192	4	5
MET	20	288	4	6
MET	22	96	4	5
MET	23	192	4	6
MET	25	0	4	5
MET	26	96	4	6
MET	29	96	4	7
MET	36	96	4	3
MET	37	288	4	2
MET	38	96	4	7
MET	43	192	4	6
MET	45	0	4	3
MET	45	288	4	4
MET	61	288	4	3
MET	62	192	4	4
MET	94	192	4	5
MET	99	192	8	11
MET	102	96	8	6
MET	103	0	4	2
MET	103	192	8	3
MET	105	144	8	5
MET	106	0	4	2
MET	106	192	4	7
MET	120	192	4	5
MET	131	288	4	6

HLD	2	0	5	768
HLD	4	0	4	768
HLD	6	0	3	768
TAP	8	0	2
HLD	10	0	2	768
HLD	12	0	3	768
HLD	14	0	4	768
TAP	16	0	5
TAP	19	0	7
TAP	19	96	7
TAP	19	192	6
TAP	19	288	6
TAP	20	0	5
TAP	20	96	5
TAP	20	192	4
TAP	20	288	4
TAP	21	0	3
TAP	21	0	4
TAP	21	96	3
TAP	21	96	4
TAP	21	288	3
TAP	22	0	3
TAP	22	96	2
TAP	22	192	2
TAP	22	288	1
TAP	23	0	1
TAP	23	96	0
TAP	23	192	0
TAP	23	288	0
TAP	23	288	7
TAP	24	0	0
TAP	24	0	7
TAP	24	192	0
TAP	24	288	0
TAP	25	0	1
TAP	25	96	1
TAP	25	192	2
TAP	25	288	2
TAP	26	0	3
TAP	26	96	3
TAP	26	192	3
TAP	26	192	4
TAP	26	288	3
TAP	26	288	4
TAP	27	96	4
TAP	27	192	4
TAP	27	288	5
TAP	28	0	5
TAP	28	96	6
TAP	28	192	6
TAP	28	288	7
TAP	29	0	7
TAP	29	96	0
TAP	29	96	7
TAP	29	192	0
TAP	29	192	7
HLD	30	96	1	480
HLD	30	96	6	480
TAP	32	0	0
TAP	32	96	0
TAP	32	192	1
TAP	32	288	2
TAP	33	0	2
TAP	33	0	3
TAP	33	96	2
TAP	33	96	3
TAP	33	288	4
TAP	34	0	4
TAP	34	96	5
TAP	34	192	6
TAP	34	288	6
TAP	34	288	7
TAP	35	0	6
TAP	35	0	7
TAP	35	192	7
TAP	35	288	7
TAP	36	0	6
TAP	36	96	5
TAP	36	192	4
TAP	36	192	5
TAP	36	288	4
TAP	36	288	5
STR	37	96	3
SI_	37	96	3	96	288	0
TAP	39	96	7
TAP	39	192	7
TAP	39	288	6
TAP	40	0	5
TAP	40	96	4
TAP	40	96	5
TAP	40	192	4
TAP	40	192	5
TAP	41	0	3
TAP	41	96	3
TAP	41	192	2
TAP	41	288	1
TAP	42	0	0
TAP	42	0	1
TAP	42	96	0
TAP	42	96	1
TAP	42	288	0
TAP	43	0	0
TAP	43	96	1
TAP	43	192	2
TAP	43	288	2
TAP	43	288	3
TAP	44	0	2
TAP	44	0	3
STR	44	192	4
SI_	44	192	4	96	288	7
HLD	46	288	7	192
HLD	47	96	6	192
HLD	47	288	5	192
TAP	48	96	4
HLD	48	288	3	192
HLD	49	96	2	192
HLD	49	288	1	192
TAP	50	96	0
HLD	50	288	0	192
HLD	51	96	1	192
HLD	51	288	2	192
TAP	52	96	3
HLD	52	288	4	192
HLD	53	96	5	192
HLD	53	288	6	192
TAP	54	96	7
STR	54	288	7
SI_	54	288	7	96	288	4
STR	56	288	3
SI_	56	288	3	96	288	0
TAP	58	288	1
TAP	59	0	1
TAP	59	96	2
TAP	59	192	2
TAP	59	288	3
TAP	60	0	3
TAP	60	96	4
TAP	60	192	4
STR	60	288	5
SCR	60	288	5	96	624	3
TAP	63	192	2
TAP	63	288	2
TAP	64	0	2
TAP	64	0	3
TAP	64	96	2
TAP	64	96	3
TAP	64	192	1
TAP	64	288	1
TAP	65	0	0
TAP	65	0	1
TAP	65	96	0
TAP	65	96	1
STR	65	192	7
SI_	65	192	7	96	192	4
STR	66	192	3
SI_	66	192	3	96	192	0
TAP	67	192	6
TAP	67	288	6
TAP	68	0	6
TAP	68	0	7
TAP	68	96	6
TAP	68	96	7
TAP	68	192	5
TAP	68	288	5
TAP	69	0	4
TAP	69	0	5
TAP	69	96	4
TAP	69	96	5
STR	69	192	3
SI_	69	192	3	96	192	0
STR	70	192	7
SI_	70	192	7	96	192	4
TAP	71	192	3
TAP	71	288	3
TAP	72	0	2
TAP	72	96	2
TAP	72	96	3
TAP	72	192	1
TAP	72	288	1
TAP	73	0	0
TAP	73	96	0
TAP	73	96	7
TAP	73	192	7
TAP	73	288	7
TAP	74	0	6
TAP	74	96	6
TAP	74	96	7
TAP	74	192	5
TAP	74	288	5
TAP	75	0	4
TAP	75	96	3
TAP	75	96	4
TAP	75	192	3
TAP	75	192	4
TAP	75	288	3
TAP	75	288	4
TAP	76	0	2
TAP	76	0	5
TAP	76	96	2
TAP	76	96	5
TAP	76	192	1
TAP	76	192	6
TAP	76	288	1
TAP	76	288	6
STR	77	0	0
SCR	77	0	0	96	480	7
HLD	79	192	7	384
BRK	81	96	7
STR	81	192	6
SI_	81	192	6	96	192	2
STR	82	192	1
SI_	82	192	1	96	192	5
TAP	83	192	6
TAP	83	288	6
TAP	84	0	7
TAP	84	96	0
TAP	84	96	7
TAP	84	192	0
TAP	84	288	0
TAP	85	0	1
TAP	85	96	0
TAP	85	96	1
TAP	85	192	2
TAP	85	288	2
TAP	86	0	2
TAP	86	0	3
TAP	86	96	2
TAP	86	96	3
TAP	86	192	1
TAP	86	192	4
TAP	87	0	0
TAP	87	0	7
TAP	87	192	0
TAP	87	288	1
TAP	88	0	2
TAP	88	96	3
TAP	88	192	4
TAP	88	288	5
TAP	89	0	6
TAP	89	96	7
TAP	89	192	7
TAP	89	288	6
TAP	90	0	5
TAP	90	96	4
TAP	90	192	3
TAP	90	288	2
TAP	91	0	1
TAP	91	96	0
TAP	91	192	0
TAP	91	192	7
TAP	91	288	0
TAP	91	288	7
TAP	92	0	1
TAP	92	0	6
TAP	92	96	1
TAP	92	96	6
TAP	92	192	2
TAP	92	192	5
TAP	92	288	2
TAP	92	288	5
TAP	93	0	3
TAP	93	0	4
STR	93	96	3
SI_	93	96	3	96	288	0
STR	93	96	4
SI_	93	96	4	96	288	7
TAP	95	192	1
TAP	95	288	2
TAP	96	0	3
TAP	96	96	4
TAP	96	192	5
TAP	96	288	6
TAP	97	0	5
TAP	97	96	4
TAP	97	192	3
TAP	97	288	2
TAP	98	0	1
TAP	98	96	2
TAP	98	192	3
TAP	98	288	4
TAP	99	0	5
TAP	99	96	6
TAP	99	192	5
TAP	99	288	4
TAP	100	0	3
TAP	100	96	2
TAP	100	192	0
TAP	100	192	1
TAP	100	288	0
TAP	100	288	1
TAP	101	0	0
TAP	101	0	1
TAP	101	96	0
TAP	101	96	1
TAP	101	336	6
TAP	101	336	7
TAP	102	48	6
TAP	102	48	7
TAP	102	144	6
TAP	102	144	7
TAP	102	240	6
TAP	102	240	7
TAP	103	96	0
TAP	103	96	7
HLD	104	0	1	336
HLD	104	0	6	336
TAP	105	240	2
TAP	105	240	5
TAP	105	336	2
TAP	105	336	5
TAP	106	144	3
TAP	106	144	4
TAP	106	240	3
TAP	106	240	4
TAP	107	192	5
TAP	107	288	6
TAP	108	0	7
TAP	108	96	0
TAP	108	192	1
TAP	108	288	2
TAP	108	288	3
TAP	109	0	2
TAP	109	0	3
TAP	109	96	2
TAP	109	192	1
TAP	109	288	0
TAP	110	0	7
TAP	110	96	6
TAP	110	192	4
TAP	110	192	5
TAP	110	288	4
TAP	110	288	5
TAP	111	0	5
TAP	111	96	6
TAP	111	192	7
TAP	111	288	0
TAP	112	0	1
TAP	112	96	2
TAP	112	96	3
TAP	112	192	2
TAP	112	192	3
TAP	112	288	2
TAP	113	0	1
TAP	113	96	0
TAP	113	192	7
TAP	113	288	0
TAP	113	288	7
TAP	114	0	0
TAP	114	0	7
TAP	114	192	6
TAP	114	288	5
TAP	115	0	4
TAP	115	96	3
TAP	115	192	2
TAP	115	288	0
TAP	115	288	1
TAP	116	0	2
TAP	116	0	7
TAP	116	96	1
TAP	116	192	2
TAP	116	288	3
TAP	117	0	4
TAP	117	96	5
TAP	117	192	6
TAP	117	192	7
TAP	117	288	0
TAP	117	288	5
TAP	118	0	6
TAP	118	96	5
TAP	118	192	4
TAP	118	288	3
TAP	119	0	2
TAP	119	96	0
TAP	119	96	1
TAP	119	192	2
TAP	119	192	7
TAP	119	288	1
TAP	120	0	2
TAP	120	96	3
TAP	120	192	4
TAP	120	288	2
TAP	120	288	5
TAP	121	0	2
TAP	121	0	5
TAP	121	96	3
TAP	121	96	4
STR	121	192	3
SI_	121	192	3	96	192	0
STR	121	192	4
SI_	121	192	4	96	192	7
STR	122	288	0
SI_	122	288	0	96	192	3
STR	122	288	7
SI_	122	288	7	96	192	4
STR	124	0	3
SI_	124	0	3	96	192	7
STR	124	0	4
SI_	124	0	4	96	192	0
STR	125	96	0
SCR	125	96	0	96	192	3
STR	125	96	7
SCL	125	96	7	96	192	4
TAP	126	192	4
TAP	126	288	5
TAP	127	0	6
TAP	127	96	6
TAP	127	96	7
TAP	127	192	6
TAP	127	192	7
TAP	127	288	0
TAP	128	0	1
TAP	128	96	2
TAP	128	192	2
TAP	128	192	3
TAP	128	288	2
TAP	128	288	3
TAP	129	0	3
TAP	129	96	2
TAP	129	192	1
TAP	129	288	0
TAP	129	288	1
TAP	130	0	0
TAP	130	0	1
TAP	130	96	7
TAP	130	192	6
TAP	130	288	5
TAP	131	0	4
TAP	131	0	5
TAP	131	96	4
TAP	131	96	5
HLD	132	288	3	576
HLD	134	96	2	576
HLD	135	288	1	576
HLD	137	96	0	528

T_REC_TAP	362
T_REC_BRK	1
T_REC_XTP	0
T_REC_HLD	27
T_REC_XHO	0
T_REC_STR	22
T_REC_BST	0
T_REC_XST	0
T_REC_TTP	0
T_REC_THO	0
T_REC_SLD	22
T_REC_ALL	434
T_NUM_TAP	384
T_NUM_BRK	1
T_NUM_HLD	27
T_NUM_SLD	22
T_NUM_ALL	434
T_JUDGE_TAP	385
T_JUDGE_HLD	233
T_JUDGE_SLD	22
T_JUDGE_ALL	640
TTM_EACHPAIRS	96
TTM_SCR_TAP	192000
TTM_SCR_BRK	2600
TTM_SCR_HLD	27000
TTM_SCR_SLD	33000
TTM_SCR_ALL	254600
TTM_SCR_S	246900
TTM_SCR_SS	254500
TTM_RAT_ACV	10003

