VERSION	0.00.00	1.03.00
FES_MODE	0
BPM_DEF	230.000	230.000	230.000	230.000
MET_DEF	4	4
RESOLUTION	384
CLK_DEF	384
COMPATIBLE_CODE	MA2

BPM	0	0	230.000
MET	0	0	4	4
MET	18	0	4	6
MET	19	192	4	5
MET	20	288	4	6
MET	22	96	4	5
MET	23	192	4	6
MET	25	0	4	5
MET	26	96	4	6
MET	29	96	4	7
MET	36	96	4	3
MET	37	288	4	2
MET	38	96	4	7
MET	43	192	4	6
MET	45	0	4	3
MET	45	288	4	4
MET	61	288	4	3
MET	62	192	4	4
MET	94	192	4	5
MET	99	192	8	11
MET	102	96	8	6
MET	103	0	4	2
MET	103	192	8	3
MET	105	144	8	5
MET	106	0	4	2
MET	106	192	4	7
MET	120	192	4	5
MET	131	288	4	6

HLD	2	0	0	768
TAP	5	0	0
HLD	6	0	1	768
TAP	9	0	1
HLD	10	0	2	768
TAP	13	0	2
HLD	14	0	3	768
TAP	17	0	3
TAP	17	0	4
TAP	19	0	4
TAP	19	192	4
TAP	20	0	4
HLD	20	192	3	288
HLD	20	192	5	288
TAP	21	288	3
TAP	22	96	3
TAP	22	288	3
HLD	23	96	2	288
HLD	23	96	4	288
TAP	24	192	2
TAP	25	0	2
TAP	25	192	2
HLD	26	0	1	288
HLD	26	0	3	288
TAP	27	96	1
TAP	27	288	1
TAP	28	96	1
STR	28	288	0
SI_	28	288	0	96	288	4
BRK	30	96	3
BRK	30	96	5
HLD	32	0	7	192
TAP	33	0	7
TAP	33	96	7
HLD	33	288	6	192
TAP	34	288	6
TAP	35	0	6
HLD	35	192	5	192
TAP	36	192	5
TAP	36	288	5
HLD	37	96	3	144
HLD	37	96	4	144
HLD	38	0	2	144
HLD	38	0	5	144
HLD	39	96	3	192
TAP	40	96	3
TAP	40	192	3
HLD	41	0	2	192
TAP	42	0	2
TAP	42	96	2
HLD	42	288	1	192
TAP	43	288	1
TAP	44	0	1
HLD	44	192	0	144
HLD	44	192	7	144
HLD	45	96	1	144
HLD	45	96	6	144
BRK	46	0	0
BRK	46	0	7
TAP	46	288	0
TAP	47	96	0
TAP	47	288	1
TAP	48	96	1
TAP	48	288	2
TAP	49	96	2
TAP	49	288	3
TAP	50	96	3
TAP	50	288	4
TAP	51	96	3
TAP	51	96	5
TAP	51	288	3
TAP	52	96	2
TAP	52	96	4
TAP	52	288	4
TAP	53	96	3
TAP	53	96	5
TAP	53	288	3
TAP	54	96	2
TAP	54	96	4
STR	54	288	3
SI_	54	288	3	96	288	0
STR	56	288	4
SI_	56	288	4	96	288	7
TAP	58	288	3
TAP	59	0	3
TAP	59	96	4
TAP	59	192	4
TAP	59	288	3
TAP	60	0	4
TAP	60	96	3
HLD	60	288	3	144
HLD	60	288	4	144
HLD	61	192	2	144
HLD	61	192	5	144
HLD	62	96	1	144
HLD	62	96	6	144
BRK	63	0	0
BRK	63	0	7
TAP	63	192	0
TAP	63	288	0
TAP	64	0	1
TAP	64	96	1
TAP	64	192	2
TAP	64	288	2
TAP	65	0	3
TAP	65	0	4
HLD	65	192	4	144
HLD	65	192	5	144
HLD	66	192	2	144
HLD	66	192	3	144
TAP	67	192	4
TAP	67	288	4
TAP	68	0	5
TAP	68	96	5
TAP	68	192	6
TAP	68	288	6
TAP	69	0	7
TAP	69	96	7
HLD	69	192	0	144
HLD	69	192	7	144
TAP	70	96	1
TAP	70	96	6
TAP	70	192	1
TAP	70	192	6
TAP	71	192	7
TAP	71	288	7
TAP	72	0	6
TAP	72	96	6
TAP	72	192	5
TAP	72	288	5
TAP	73	0	3
TAP	73	0	4
TAP	73	192	3
TAP	73	288	3
TAP	74	0	4
TAP	74	96	4
TAP	74	192	2
TAP	74	192	5
TAP	74	288	2
TAP	74	288	5
TAP	75	0	2
TAP	75	0	5
TAP	75	192	3
TAP	75	288	3
TAP	76	0	2
TAP	76	96	2
TAP	76	192	1
TAP	76	288	1
TAP	77	0	0
TAP	77	96	0
STR	77	192	7
SI_	77	192	7	96	288	3
BRK	79	192	0
HLD	81	192	0	144
HLD	81	192	1	144
HLD	82	192	6	144
HLD	82	192	7	144
TAP	83	192	0
TAP	83	288	0
TAP	84	0	1
TAP	84	96	1
TAP	84	192	2
TAP	84	288	2
TAP	85	0	3
TAP	85	0	4
TAP	85	192	4
TAP	85	288	4
TAP	86	0	5
TAP	86	96	5
TAP	86	192	6
TAP	86	192	7
TAP	87	192	7
TAP	87	288	7
TAP	88	0	6
TAP	88	96	6
TAP	88	192	5
TAP	88	288	5
TAP	89	0	3
TAP	89	0	4
TAP	89	192	3
TAP	89	288	3
TAP	90	0	2
TAP	90	96	2
TAP	90	192	0
TAP	90	192	1
TAP	91	0	0
TAP	91	0	1
HLD	91	192	7	192
TAP	92	0	0
HLD	92	192	0	192
TAP	93	0	7
STR	93	192	0
SI_	93	192	0	96	288	3
STR	93	192	7
SI_	93	192	7	96	288	4
STR	95	192	5
SI_	95	192	5	96	288	2
TAP	97	192	1
STR	98	0	1
SI_	98	0	1	96	288	6
TAP	100	0	7
HLD	100	192	6	144
HLD	100	192	7	144
TAP	101	96	0
TAP	101	96	5
HLD	101	336	0	144
HLD	101	336	1	144
TAP	102	240	2
TAP	102	240	7
TAP	103	96	7
TAP	103	192	7
STR	104	0	0
SI_	104	0	0	96	288	4
STR	105	240	7
SI_	105	240	7	96	288	3
TAP	107	192	2
TAP	107	288	2
TAP	108	0	1
TAP	108	96	1
HLD	108	192	0	144
HLD	108	192	7	144
TAP	109	96	6
TAP	109	192	6
TAP	109	288	5
TAP	110	0	5
HLD	110	96	3	144
HLD	110	96	4	144
TAP	111	0	5
TAP	111	96	5
TAP	111	192	6
TAP	111	288	6
HLD	112	0	0	144
HLD	112	0	7	144
TAP	112	288	1
TAP	113	0	1
TAP	113	96	2
TAP	113	192	2
HLD	113	288	3	144
HLD	113	288	4	144
TAP	114	192	3
TAP	114	288	3
TAP	115	0	2
TAP	115	96	2
TAP	115	192	1
TAP	115	288	1
TAP	116	0	0
TAP	116	96	0
TAP	116	192	7
TAP	116	288	7
TAP	117	0	6
TAP	117	96	6
TAP	117	192	4
TAP	117	192	5
TAP	118	0	4
TAP	118	96	4
TAP	118	192	5
TAP	118	288	5
TAP	119	0	6
TAP	119	96	6
TAP	119	192	7
TAP	119	288	7
TAP	120	0	0
TAP	120	96	0
TAP	120	192	1
TAP	120	288	1
TAP	121	0	2
TAP	121	0	3
STR	121	192	2
SI_	121	192	2	96	288	5
TAP	123	192	6
STR	124	0	6
SI_	124	0	6	96	288	1
TAP	126	0	0
TAP	126	192	0
TAP	126	288	0
TAP	127	0	0
TAP	127	96	1
TAP	127	96	7
TAP	127	288	2
TAP	128	0	2
TAP	128	96	2
TAP	128	192	1
TAP	128	192	3
TAP	129	0	4
TAP	129	96	4
TAP	129	192	4
TAP	129	288	3
TAP	129	288	5
TAP	130	96	6
TAP	130	192	6
TAP	130	288	6
TAP	131	0	5
TAP	131	0	7
HLD	132	288	0	2256
HLD	135	288	7	1104

T_REC_TAP	208
T_REC_BRK	7
T_REC_XTP	0
T_REC_HLD	56
T_REC_XHO	0
T_REC_STR	12
T_REC_BST	0
T_REC_XST	0
T_REC_TTP	0
T_REC_THO	0
T_REC_SLD	12
T_REC_ALL	295
T_NUM_TAP	220
T_NUM_BRK	7
T_NUM_HLD	56
T_NUM_SLD	12
T_NUM_ALL	295
T_JUDGE_TAP	227
T_JUDGE_HLD	310
T_JUDGE_SLD	12
T_JUDGE_ALL	549
TTM_EACHPAIRS	50
TTM_SCR_TAP	110000
TTM_SCR_BRK	18200
TTM_SCR_HLD	56000
TTM_SCR_SLD	18000
TTM_SCR_ALL	202200
TTM_SCR_S	195500
TTM_SCR_SS	201500
TTM_RAT_ACV	10034

