VERSION	0.00.00	1.03.00
FES_MODE	0
BPM_DEF	140.000	140.000	140.000	140.000
MET_DEF	4	4
RESOLUTION	384
CLK_DEF	384
COMPATIBLE_CODE	MA2

BPM	0	0	140.000

TAP	1	0	2
TAP	1	48	1
TAP	1	48	4
TAP	1	96	5
TAP	1	144	3
TAP	1	144	6
TAP	1	192	2
TAP	1	240	1
TAP	1	240	4
TAP	1	288	5
TAP	1	336	3
TAP	1	336	6
TAP	2	0	2
TAP	2	48	1
TAP	2	96	0
TAP	2	144	6
TAP	2	144	7
TAP	2	192	6
TAP	2	192	7
TAP	2	288	1
TAP	2	288	4
TAP	3	0	5
TAP	3	48	3
TAP	3	48	6
TAP	3	96	2
TAP	3	144	1
TAP	3	144	4
TAP	3	192	5
TAP	3	240	3
STR	3	240	6
SCL	3	240	6	96	48	3
TAP	3	288	1
BRK	3	336	0
TAP	4	48	0
TAP	4	96	7
TAP	4	144	6
HLD	4	192	4	96
STR	4	192	5
SCR	4	192	5	96	48	0
TAP	5	0	2
TAP	5	48	1
TAP	5	48	4
TAP	5	96	5
TAP	5	144	3
TAP	5	144	6
TAP	5	192	2
STR	5	240	1
SCL	5	240	1	96	48	6
TAP	5	240	4
TAP	5	288	5
BRK	5	336	6
TAP	6	48	5
TAP	6	96	4
STR	6	144	2
SI_	6	144	2	96	48	7
STR	6	144	3
SI_	6	144	3	96	48	6
TAP	6	336	0
TAP	6	336	5
TAP	7	48	1
TAP	7	48	7
STR	7	96	6
SI_	7	96	6	96	48	3
TAP	7	144	0
STR	7	192	1
SI_	7	192	1	96	48	4
TAP	7	288	7
HLD	8	0	5	96
TAP	8	48	4
TAP	8	96	4
TAP	8	120	5
TAP	8	192	4
TAP	8	192	5
TAP	8	264	3
TAP	8	264	4
TAP	8	336	2
TAP	8	336	3
HLD	9	0	2	96
TAP	9	48	3
TAP	9	96	3
TAP	9	120	2
TAP	9	192	2
TAP	9	192	3
TAP	9	264	3
TAP	9	264	4
TAP	9	336	2
TAP	9	336	5
TAP	10	0	2
TAP	10	0	4
TAP	10	48	3
TAP	10	96	4
TAP	10	96	5
TAP	10	144	6
TAP	10	192	3
TAP	10	192	5
TAP	10	240	4
TAP	10	288	2
TAP	10	288	3
TAP	10	336	1
TAP	11	0	2
TAP	11	0	4
TAP	11	48	3
STR	11	96	4
SCL	11	96	4	96	96	0
TAP	11	96	5
TAP	11	144	6
TAP	11	192	5
TAP	11	240	5
TAP	11	288	4
TAP	11	336	3
TAP	12	0	2
TAP	12	0	4
TAP	12	48	3
TAP	12	96	4
TAP	12	96	5
TAP	12	144	6
TAP	12	192	3
TAP	12	192	5
TAP	12	240	4
TAP	12	288	2
TAP	12	288	3
TAP	12	336	1
TAP	13	0	2
TAP	13	0	4
TAP	13	48	3
STR	13	96	4
SXR	13	96	4	96	96	2
TAP	13	96	5
TAP	13	144	6
TAP	13	192	5
TAP	13	240	5
TAP	13	288	4
TAP	13	336	3
TAP	14	0	2
TAP	14	0	4
TAP	14	48	3
TAP	14	96	4
TAP	14	96	5
TAP	14	144	6
TAP	14	192	3
TAP	14	192	5
TAP	14	240	4
TAP	14	288	2
STR	14	288	3
SCR	14	288	3	96	96	7
STR	15	0	7
SCR	15	0	7	96	96	3
STR	15	96	3
SCR	15	96	3	96	96	7
STR	15	192	7
SCR	15	192	7	96	96	3
STR	15	288	3
SXR	15	288	3	96	192	6
HLD	16	0	0	192
TAP	16	288	3
TAP	16	288	4
TAP	17	0	3
TAP	17	0	4
TAP	17	48	2
TAP	17	48	5
TAP	17	96	5
TAP	17	120	4
TAP	17	168	2
TAP	17	192	3
TAP	17	240	1
TAP	17	240	6
TAP	17	288	1
TAP	17	288	6
TAP	18	0	3
TAP	18	0	5
TAP	18	48	4
TAP	18	96	2
TAP	18	96	3
TAP	18	144	1
TAP	18	192	2
TAP	18	192	4
TAP	18	240	3
TAP	18	288	4
TAP	18	288	5
TAP	18	336	6
TAP	19	0	3
TAP	19	0	5
TAP	19	48	4
TAP	19	96	2
STR	19	96	3
SCR	19	96	3	96	96	7
TAP	19	144	1
TAP	19	192	2
TAP	19	240	2
TAP	19	288	3
TAP	19	336	4
TAP	20	0	3
TAP	20	0	5
TAP	20	48	4
TAP	20	96	2
TAP	20	96	3
TAP	20	144	1
TAP	20	192	2
TAP	20	192	4
TAP	20	240	3
TAP	20	288	4
TAP	20	288	5
TAP	20	336	6
TAP	21	0	3
TAP	21	0	5
TAP	21	48	4
TAP	21	96	2
STR	21	96	3
SUL	21	96	3	96	96	6
TAP	21	144	1
TAP	21	192	2
TAP	21	240	2
TAP	21	288	3
TAP	21	336	4
TAP	22	0	3
TAP	22	0	5
TAP	22	48	4
TAP	22	96	2
TAP	22	96	3
TAP	22	144	1
TAP	22	192	2
TAP	22	192	4
TAP	22	240	3
STR	22	288	4
SCL	22	288	4	96	96	0
TAP	22	288	5
STR	23	0	0
SCL	23	0	0	96	96	4
STR	23	96	4
SCL	23	96	4	96	96	0
TAP	23	192	0
TAP	23	288	4
TAP	24	0	2
TAP	24	24	3
HLD	24	72	1	72
HLD	24	72	4	72
TAP	24	192	5
TAP	24	216	4
HLD	24	264	3	72
HLD	24	264	6	72
TAP	25	0	0
TAP	25	0	7
TAP	25	48	1
TAP	25	48	3
TAP	25	120	4
TAP	25	120	6
STR	25	192	0
SCR	25	192	0	96	48	3
STR	25	192	7
SCL	25	192	7	96	48	4
HLD	26	0	4	96
HLD	26	96	3	96
HLD	26	192	2	96
TAP	26	288	0
TAP	26	336	0
STR	27	0	0
SCR	27	0	0	96	72	4
TAP	27	0	6
STR	27	96	7
SI_	27	96	7	96	48	4
TAP	27	144	7
TAP	27	288	2
TAP	27	336	2
TAP	28	0	1
TAP	28	0	7
TAP	28	48	0
TAP	28	96	6
TAP	28	96	7
TAP	28	144	5
TAP	28	192	0
TAP	28	192	6
TAP	28	240	7
TAP	28	288	0
TAP	28	288	1
TAP	28	336	2
STR	29	0	1
SXL	29	0	1	96	192	5
TAP	29	0	7
TAP	29	48	1
HLD	29	48	7	240
HLD	30	0	6	96
HLD	30	96	7	96
HLD	30	192	0	96
HLD	30	288	1	96
HLD	31	0	4	96
STR	31	96	3
SCL	31	96	3	96	96	7
SCR	31	96	3	96	96	7
TAP	31	144	3
TAP	32	0	2
TAP	32	48	2
TAP	32	96	1
TAP	32	96	3
TAP	32	144	4
TAP	32	192	5
TAP	32	240	5
TAP	32	288	4
TAP	32	288	6
TAP	32	336	3
TAP	33	0	0
TAP	33	0	7
TAP	33	96	3
TAP	33	96	4
TAP	33	192	0
TAP	33	192	2
TAP	33	256	5
TAP	33	256	7
TAP	33	324	1
TAP	33	324	6
BST	34	0	1
SXR	34	0	1	96	192	4
BST	34	0	6
SXL	34	0	6	96	192	3
TAP	35	24	5
TAP	35	48	4
TAP	35	96	0
TAP	35	144	1
TAP	35	144	7
TAP	35	192	3
TAP	35	192	5
TAP	35	240	4
TAP	35	264	3
TAP	35	288	4
TAP	35	312	3
TAP	35	336	4
STR	36	0	2
SXL	36	0	2	96	240	3
TAP	36	0	5
STR	37	0	2
SUL	37	0	2	96	240	3
SXL	37	0	2	96	240	3
TAP	37	0	3
STR	38	0	2
SXL	38	0	2	96	240	3
SLL	38	0	2	96	240	3
TAP	38	0	3
HLD	39	0	2	288
HLD	39	0	5	288
TAP	40	0	3
TAP	40	48	3
TAP	40	96	3
TAP	40	96	4
TAP	40	144	3
TAP	40	192	3
TAP	40	240	3
TAP	40	288	3
TAP	40	288	4
TAP	40	336	3
TAP	41	0	4
TAP	41	48	4
TAP	41	96	3
TAP	41	96	4
TAP	41	144	4
TAP	41	192	4
TAP	41	240	4
TAP	41	288	3
TAP	41	288	4
TAP	41	336	4
TAP	42	0	3
TAP	42	0	4
TAP	42	48	3
TAP	42	96	3
TAP	42	96	5
TAP	42	144	4
TAP	42	192	2
TAP	42	192	4
TAP	42	240	3
TAP	42	288	3
TAP	42	288	5
TAP	42	336	4
TAP	43	0	1
TAP	43	0	3
TAP	43	48	2
TAP	43	96	4
TAP	43	96	6
TAP	43	144	5
TAP	43	192	0
TAP	43	192	7
TAP	43	240	1
TAP	43	240	6
BRK	43	288	2
BRK	43	288	5
TAP	44	0	3
TAP	44	0	4
TAP	44	48	6
TAP	44	48	7
TAP	44	96	3
TAP	44	96	4
STR	44	144	0
SLR	44	144	0	96	72	4
TAP	44	144	1
TAP	44	192	7
TAP	44	240	7
TAP	44	288	6
TAP	44	336	6
TAP	45	0	4
TAP	45	0	5
TAP	45	48	0
TAP	45	48	7
TAP	45	96	2
TAP	45	96	3
TAP	45	144	4
STR	45	144	5
SUR	45	144	5	96	48	2
HLD	45	192	1	96
TAP	45	336	1
TAP	46	0	0
TAP	46	0	7
TAP	46	48	4
TAP	46	48	6
TAP	46	96	0
TAP	46	96	7
TAP	46	144	1
TAP	46	144	3
TAP	46	192	5
TAP	46	240	4
TAP	46	240	5
TAP	46	288	3
TAP	46	288	6
BRK	46	336	0
BRK	46	336	1
BRK	47	48	3
BRK	47	48	6
BRK	47	144	6
BRK	47	144	7
BST	47	240	1
SCR	47	240	1	96	144	6
BRK	47	240	4
BRK	47	336	1
BRK	47	336	6
TAP	48	192	7
TAP	48	240	7
TAP	48	288	0
TAP	48	288	6
TAP	48	336	0
TAP	48	336	6
TAP	49	0	5
TAP	49	48	4
TAP	49	96	3
TAP	49	96	5
TAP	49	144	4
TAP	49	168	2
TAP	49	216	2
TAP	49	240	3
TAP	49	288	1
TAP	49	288	7
TAP	49	336	1
TAP	49	336	7
TAP	50	0	2
TAP	50	48	3
TAP	50	96	2
TAP	50	96	4
TAP	50	144	3
TAP	50	168	5
TAP	50	216	5
TAP	50	240	4
TAP	50	288	0
TAP	50	288	6
TAP	50	336	0
TAP	50	336	6
TAP	51	0	7
TAP	51	48	0
TAP	51	96	1
TAP	51	96	6
TAP	51	144	4
TAP	51	168	2
TAP	51	216	2
TAP	51	240	3
STR	51	288	0
SCR	51	288	0	96	288	7
TAP	51	336	0
TAP	52	0	0
TAP	52	0	7
TAP	53	0	7
TAP	53	48	0
TAP	53	48	6
TAP	53	96	5
TAP	53	120	4
TAP	53	192	2
TAP	53	192	3
TAP	53	264	4
TAP	53	264	5
TAP	53	336	0
TAP	53	336	7
HLD	54	0	1	192
HLD	54	0	6	192
HLD	55	0	3	96
HLD	55	0	4	96
TAP	55	192	0
HLD	55	192	7	96
TAP	55	208	1
TAP	55	224	2
TAP	55	240	3
TAP	55	256	4
TAP	55	272	5
BRK	55	288	6
TAP	56	0	1
TAP	56	48	2
TAP	56	48	7
TAP	56	96	5
TAP	56	120	4
TAP	56	192	4
TAP	56	192	6
TAP	56	264	1
TAP	56	264	3
TAP	56	336	0
TAP	56	336	7
TAP	57	0	3
TAP	57	0	4
TAP	57	48	2
TAP	57	48	5
TAP	57	96	0
TAP	57	120	7
TAP	57	192	0
TAP	57	192	6
BRK	57	264	1
BRK	57	264	5
TAP	58	0	6
TAP	58	48	0
TAP	58	48	5
TAP	58	96	1
TAP	58	144	2
TAP	58	144	7
TAP	58	192	6
TAP	58	240	0
TAP	58	240	5
TAP	58	288	1
TAP	58	336	2
TAP	58	336	7
TAP	59	0	6
TAP	59	48	5
TAP	59	96	4
TAP	59	144	2
TAP	59	144	3
TAP	59	192	2
TAP	59	192	3
TAP	59	288	0
TAP	59	288	5
TAP	60	0	7
TAP	60	48	0
TAP	60	48	6
TAP	60	96	1
TAP	60	96	5
TAP	60	144	2
TAP	60	144	4
STR	60	192	3
SCL	60	192	3	96	48	7
SCR	60	192	3	96	48	7
HLD	61	0	6	96
TAP	61	48	7
TAP	61	96	7
TAP	61	120	6
TAP	61	192	6
TAP	61	192	7
TAP	61	264	0
TAP	61	264	7
TAP	61	336	0
TAP	61	336	1
HLD	62	0	1	96
TAP	62	48	0
TAP	62	96	0
TAP	62	120	1
TAP	62	204	0
TAP	62	204	2
TAP	62	288	3
TAP	62	288	7
TAP	62	372	4
TAP	62	372	6
BST	63	240	3
SCL	63	240	3	96	816	4
BST	63	240	4
SCR	63	240	4	96	816	3
BST	66	240	1
SCR	66	240	1	96	144	5
BRK	66	240	5

T_REC_TAP	451
T_REC_BRK	17
T_REC_XTP	0
T_REC_HLD	27
T_REC_XHO	0
T_REC_STR	32
T_REC_BST	6
T_REC_XST	0
T_REC_TTP	0
T_REC_THO	0
T_REC_SLD	42
T_REC_ALL	575
T_NUM_TAP	483
T_NUM_BRK	23
T_NUM_HLD	27
T_NUM_SLD	42
T_NUM_ALL	575
T_JUDGE_TAP	506
T_JUDGE_HLD	71
T_JUDGE_SLD	42
T_JUDGE_ALL	619
TTM_EACHPAIRS	162
TTM_SCR_TAP	241500
TTM_SCR_BRK	59800
TTM_SCR_HLD	27000
TTM_SCR_SLD	63000
TTM_SCR_ALL	391300
TTM_SCR_S	377350
TTM_SCR_SS	389000
TTM_RAT_ACV	10059

