VERSION	0.00.00	1.03.00
FES_MODE	0
BPM_DEF	140.000	140.000	140.000	140.000
MET_DEF	4	4
RESOLUTION	384
CLK_DEF	384
COMPATIBLE_CODE	MA2

BPM	0	0	140.000
MET	0	0	4	4
MET	62	0	8	13
MET	63	240	4	12
MET	66	240	4	4

TAP	1	0	4
TAP	1	48	4
TAP	1	96	3
TAP	1	144	3
HLD	1	192	6	72
HLD	1	264	5	72
TAP	1	336	4
TAP	2	48	2
TAP	2	96	3
TAP	2	144	4
TAP	2	192	1
TAP	2	192	5
TAP	2	288	3
TAP	2	288	7
TAP	3	0	3
TAP	3	48	3
TAP	3	96	4
TAP	3	144	4
HLD	3	192	3	72
HLD	3	264	2	72
TAP	3	336	1
TAP	4	48	0
TAP	4	96	7
TAP	4	144	6
STR	4	192	5
SCL	4	192	5	96	48	2
TAP	5	0	0
TAP	5	48	0
TAP	5	96	7
TAP	5	144	7
HLD	5	192	2	72
HLD	5	264	1	72
TAP	5	336	0
TAP	6	48	2
TAP	6	96	3
TAP	6	144	1
TAP	6	144	4
TAP	6	240	3
TAP	6	240	7
TAP	6	336	0
TAP	6	336	5
TAP	7	48	7
TAP	7	96	7
TAP	7	144	0
STR	7	192	0
SI_	7	192	0	96	48	3
STR	7	192	7
SI_	7	192	7	96	48	4
TAP	8	0	1
HLD	8	48	1	72
HLD	8	120	2	72
HLD	8	192	3	72
HLD	8	264	4	72
TAP	8	336	5
HLD	9	48	6	72
HLD	9	120	5	72
HLD	9	192	4	72
HLD	9	264	3	72
TAP	9	336	2
BRK	10	0	0
BRK	10	0	1
TAP	10	96	3
TAP	10	144	3
TAP	10	192	5
TAP	10	240	5
TAP	10	288	4
TAP	10	288	6
TAP	11	0	5
TAP	11	48	5
TAP	11	96	2
TAP	11	144	2
TAP	11	192	3
TAP	11	240	3
TAP	11	288	2
TAP	11	288	4
TAP	12	0	2
TAP	12	48	2
TAP	12	96	5
TAP	12	144	5
TAP	12	192	4
TAP	12	240	4
TAP	12	288	3
TAP	12	288	5
TAP	13	0	2
TAP	13	48	2
TAP	13	96	1
TAP	13	96	3
TAP	13	192	5
TAP	13	240	5
TAP	13	288	4
TAP	13	288	6
TAP	14	0	1
TAP	14	48	1
TAP	14	96	3
TAP	14	144	3
TAP	14	192	4
TAP	14	240	4
TAP	14	288	4
TAP	14	288	5
TAP	15	0	6
TAP	15	48	6
TAP	15	96	4
TAP	15	144	4
TAP	15	192	3
TAP	15	240	3
TAP	15	288	2
TAP	15	288	3
TAP	16	0	2
TAP	16	48	2
TAP	16	96	1
TAP	16	96	3
TAP	16	192	5
TAP	16	240	5
TAP	16	288	4
TAP	16	288	6
TAP	17	0	3
TAP	17	48	3
STR	17	96	2
SUL	17	96	2	96	96	5
BRK	18	0	3
BRK	18	0	6
TAP	18	96	3
TAP	18	144	3
TAP	18	192	5
TAP	18	240	5
TAP	18	288	4
TAP	18	288	6
TAP	19	0	5
TAP	19	48	5
TAP	19	96	3
TAP	19	144	3
TAP	19	192	2
TAP	19	240	2
TAP	19	288	1
TAP	19	288	3
TAP	20	0	4
TAP	20	48	5
TAP	20	96	3
TAP	20	96	6
TAP	20	192	3
TAP	20	240	2
TAP	20	288	1
TAP	20	288	4
TAP	21	0	6
TAP	21	48	6
TAP	21	96	4
TAP	21	144	4
STR	21	192	5
SCL	21	192	5	96	48	2
BRK	22	0	1
BRK	22	0	4
TAP	22	96	2
TAP	22	144	2
TAP	22	192	3
TAP	22	240	3
TAP	22	288	4
TAP	22	288	5
TAP	23	0	6
TAP	23	48	6
TAP	23	96	5
TAP	23	144	5
TAP	23	192	4
TAP	23	240	4
TAP	23	288	2
TAP	23	288	3
HLD	24	0	1	72
HLD	24	72	2	72
TAP	24	144	3
HLD	24	192	6	72
HLD	24	264	5	72
TAP	24	336	4
TAP	25	0	3
TAP	25	0	4
TAP	25	48	3
TAP	25	48	4
STR	25	96	1
SCR	25	96	1	96	48	3
STR	25	96	6
SCL	25	96	6	96	48	4
BRK	25	288	0
BRK	25	288	7
TAP	26	0	2
TAP	26	0	3
TAP	26	96	1
TAP	26	96	2
TAP	26	192	0
TAP	26	192	1
TAP	26	288	0
TAP	26	288	7
HLD	27	0	6	96
TAP	27	0	7
STR	27	96	5
SCL	27	96	5	96	48	3
TAP	28	0	2
TAP	28	48	2
TAP	28	96	1
TAP	28	96	3
TAP	28	192	5
TAP	28	240	5
TAP	28	288	4
TAP	28	288	6
STR	29	0	0
SCL	29	0	0	96	192	2
TAP	29	0	1
TAP	29	48	0
TAP	29	48	1
TAP	30	0	4
TAP	30	0	5
TAP	30	96	5
TAP	30	96	6
TAP	30	192	6
TAP	30	192	7
TAP	30	288	0
TAP	30	288	7
TAP	31	0	0
HLD	31	0	1	96
STR	31	96	2
SI_	31	96	2	96	48	7
TAP	32	0	1
TAP	32	48	1
TAP	32	96	0
TAP	32	96	2
TAP	32	192	5
TAP	32	240	5
TAP	32	288	4
TAP	32	288	6
TAP	33	0	0
TAP	33	0	5
TAP	33	96	2
TAP	33	96	7
TAP	33	192	0
TAP	33	192	7
TAP	33	256	0
TAP	33	256	7
TAP	33	320	0
TAP	33	320	7
STR	34	0	0
SXL	34	0	0	96	288	3
STR	34	0	7
SXR	34	0	7	96	288	4
TAP	35	192	4
TAP	35	192	6
TAP	35	288	1
TAP	35	288	3
HLD	36	0	4	192
HLD	36	0	5	192
HLD	37	0	2	192
HLD	37	0	3	192
HLD	38	0	3	192
HLD	38	0	5	192
HLD	39	0	2	192
HLD	39	0	4	192
TAP	40	0	3
TAP	40	0	4
TAP	40	96	3
TAP	40	192	3
TAP	40	288	3
TAP	41	0	3
TAP	41	0	4
TAP	41	96	4
TAP	41	192	4
TAP	41	288	4
TAP	42	0	3
TAP	42	0	4
STR	42	48	3
SF_	42	48	3	96	144	7
TAP	42	48	4
BRK	43	0	1
BRK	43	0	5
TAP	43	192	0
TAP	43	192	7
TAP	43	240	0
TAP	43	240	7
BRK	43	288	1
BRK	43	288	6
TAP	44	0	0
TAP	44	0	1
TAP	44	48	2
TAP	44	96	3
TAP	44	96	4
TAP	44	144	5
STR	44	192	6
SXR	44	192	6	96	48	4
STR	44	192	7
SCR	44	192	7	96	48	2
TAP	45	0	6
TAP	45	0	7
TAP	45	48	5
TAP	45	96	3
TAP	45	96	4
TAP	45	144	2
STR	45	192	0
SCL	45	192	0	96	48	5
STR	45	192	1
SXL	45	192	1	96	48	3
TAP	46	0	0
TAP	46	0	7
TAP	46	48	1
TAP	46	96	2
TAP	46	96	3
TAP	46	144	4
TAP	46	192	5
TAP	46	240	4
TAP	46	288	3
TAP	46	336	2
TAP	46	336	6
TAP	47	48	0
TAP	47	48	4
TAP	47	144	3
TAP	47	144	7
STR	47	240	1
SCL	47	240	1	96	240	2
TAP	47	240	5
STR	48	288	1
SI_	48	288	1	96	48	4
TAP	49	0	5
STR	49	96	6
SI_	49	96	6	96	48	3
TAP	49	192	2
STR	49	288	0
SI_	49	288	0	96	48	4
TAP	50	0	6
STR	50	96	7
SI_	50	96	7	96	48	3
TAP	50	192	1
STR	50	288	2
SI_	50	288	2	96	48	7
TAP	51	0	6
STR	51	96	5
SI_	51	96	5	96	48	0
TAP	51	192	1
STR	51	288	3
SCL	51	288	3	96	384	4
TAP	53	192	0
TAP	53	192	7
TAP	53	264	0
TAP	53	264	7
TAP	53	336	0
TAP	53	336	7
HLD	54	0	1	288
HLD	54	0	6	288
STR	55	0	3
SI_	55	0	3	96	48	0
STR	55	0	4
SI_	55	0	4	96	48	7
STR	55	192	1
SCR	55	192	1	96	48	3
STR	55	192	6
SCL	55	192	6	96	48	4
TAP	56	0	1
TAP	56	48	1
TAP	56	96	7
TAP	56	144	7
HLD	56	192	0	72
HLD	56	264	1	72
TAP	56	336	2
TAP	57	0	6
TAP	57	48	6
TAP	57	96	0
TAP	57	144	0
TAP	57	192	1
TAP	57	192	4
BRK	57	264	3
BRK	57	264	7
TAP	58	0	4
TAP	58	48	4
TAP	58	96	3
TAP	58	144	3
HLD	58	192	6	72
HLD	58	264	5	72
TAP	58	336	4
TAP	59	48	2
TAP	59	96	3
TAP	59	144	4
TAP	59	192	1
TAP	59	192	5
TAP	59	288	3
TAP	59	288	7
TAP	60	0	0
TAP	60	48	0
TAP	60	96	7
TAP	60	144	7
STR	60	192	0
SCR	60	192	0	96	48	3
STR	60	192	7
SCL	60	192	7	96	48	4
TAP	61	0	2
HLD	61	48	2	72
HLD	61	120	1	72
HLD	61	192	0	72
HLD	61	264	7	72
TAP	61	336	6
HLD	62	48	5	72
HLD	62	120	6	84
TAP	62	204	7
TAP	62	288	1
TAP	62	288	4
TAP	62	376	3
TAP	62	376	7
BST	63	240	1
SCR	63	240	1	96	912	7
BST	63	240	6
SCL	63	240	6	96	912	0
BST	66	240	1
SCR	66	240	1	96	144	5
BRK	66	240	6

T_REC_TAP	283
T_REC_BRK	15
T_REC_XTP	0
T_REC_HLD	40
T_REC_XHO	0
T_REC_STR	31
T_REC_BST	3
T_REC_XST	0
T_REC_TTP	0
T_REC_THO	0
T_REC_SLD	34
T_REC_ALL	406
T_NUM_TAP	314
T_NUM_BRK	18
T_NUM_HLD	40
T_NUM_SLD	34
T_NUM_ALL	406
T_JUDGE_TAP	332
T_JUDGE_HLD	104
T_JUDGE_SLD	34
T_JUDGE_ALL	470
TTM_EACHPAIRS	91
TTM_SCR_TAP	157000
TTM_SCR_BRK	46800
TTM_SCR_HLD	40000
TTM_SCR_SLD	51000
TTM_SCR_ALL	294800
TTM_SCR_S	284250
TTM_SCR_SS	293000
TTM_RAT_ACV	10061

