VERSION	0.00.00	1.03.00
FES_MODE	0
BPM_DEF	140.000	140.000	140.000	140.000
MET_DEF	4	4
RESOLUTION	384
CLK_DEF	384
COMPATIBLE_CODE	MA2

BPM	0	0	140.000

TAP	1	0	3
TAP	1	96	3
TAP	1	192	2
TAP	1	288	2
TAP	2	0	1
TAP	2	96	1
TAP	2	192	0
TAP	2	288	0
TAP	3	0	7
TAP	3	96	7
TAP	3	192	6
TAP	3	288	6
TAP	4	0	5
TAP	4	96	5
TAP	4	192	3
TAP	4	192	4
TAP	5	0	2
TAP	5	96	2
TAP	5	192	3
TAP	5	288	3
TAP	6	0	4
TAP	6	96	4
TAP	6	192	5
TAP	6	288	5
TAP	7	0	6
TAP	7	96	6
TAP	7	192	7
TAP	7	288	7
STR	8	0	0
SXL	8	0	0	96	480	3
STR	8	0	7
SXR	8	0	7	96	480	4
TAP	10	0	1
TAP	10	96	2
TAP	10	192	3
TAP	10	288	4
TAP	11	0	5
TAP	11	96	6
TAP	11	192	6
TAP	11	192	7
TAP	12	0	6
TAP	12	96	5
TAP	12	192	4
TAP	12	288	3
TAP	13	0	2
TAP	13	96	1
TAP	13	192	0
TAP	13	192	1
TAP	14	0	2
TAP	14	96	2
TAP	14	192	3
TAP	14	288	3
TAP	15	0	4
TAP	15	96	4
TAP	15	192	5
TAP	15	288	5
TAP	16	0	6
TAP	16	96	6
TAP	16	192	7
TAP	16	288	7
TAP	17	0	0
TAP	17	96	7
TAP	17	192	1
TAP	17	192	6
TAP	18	0	5
TAP	18	96	6
TAP	18	192	7
TAP	18	288	0
TAP	19	0	1
TAP	19	96	2
TAP	19	192	2
TAP	19	192	3
TAP	20	0	2
TAP	20	96	1
TAP	20	192	0
TAP	20	288	7
TAP	21	0	6
TAP	21	96	5
TAP	21	192	4
TAP	21	192	5
TAP	22	0	6
TAP	22	96	6
TAP	22	192	7
TAP	22	288	7
TAP	23	0	0
TAP	23	96	0
TAP	23	192	1
TAP	23	288	1
TAP	24	0	2
TAP	24	96	2
TAP	24	192	3
TAP	24	288	3
TAP	25	0	4
TAP	25	96	3
TAP	25	192	2
TAP	25	192	5
STR	26	0	0
SI_	26	0	0	96	192	3
STR	27	0	4
SI_	27	0	4	96	192	7
TAP	28	0	0
TAP	28	96	1
TAP	28	192	2
TAP	28	288	3
STR	29	0	4
SI_	29	0	4	96	192	0
STR	30	0	1
SI_	30	0	1	96	192	6
STR	31	0	5
SI_	31	0	5	96	192	2
TAP	32	0	1
TAP	32	96	0
TAP	32	96	1
TAP	32	192	6
TAP	32	288	6
TAP	32	288	7
TAP	33	0	0
TAP	33	0	7
TAP	33	96	0
TAP	33	96	7
TAP	33	192	1
TAP	33	192	6
TAP	33	288	1
TAP	33	288	6
BRK	34	0	2
BRK	34	0	5
HLD	35	0	3	96
HLD	35	0	4	96
TAP	35	192	2
TAP	35	192	5
STR	36	0	6
SI_	36	0	6	96	192	1
STR	37	0	2
SI_	37	0	2	96	192	5
STR	38	0	4
SI_	38	0	4	96	192	7
STR	39	0	0
SI_	39	0	0	96	192	3
TAP	40	0	3
TAP	40	96	3
TAP	40	192	2
TAP	40	288	2
TAP	41	0	4
TAP	41	96	4
TAP	41	192	5
TAP	41	288	5
STR	42	0	3
SI_	42	0	3	96	192	0
STR	42	0	4
SI_	42	0	4	96	192	7
TAP	43	0	0
TAP	43	0	7
TAP	43	96	0
TAP	43	96	7
BRK	43	192	1
BRK	43	192	6
TAP	44	0	1
TAP	44	48	1
TAP	44	96	1
TAP	44	192	0
TAP	44	192	7
TAP	44	288	0
TAP	44	288	7
TAP	45	0	6
TAP	45	48	6
TAP	45	96	6
TAP	45	192	0
TAP	45	192	7
TAP	45	288	0
TAP	45	288	7
TAP	46	0	1
TAP	46	48	1
TAP	46	96	1
TAP	46	192	0
TAP	46	192	7
TAP	46	288	0
TAP	46	288	7
TAP	46	336	0
TAP	46	336	7
TAP	47	48	1
TAP	47	144	0
TAP	47	144	7
TAP	47	240	6
HLD	47	336	0	240
HLD	47	336	7	240
TAP	49	0	1
TAP	49	96	2
TAP	49	192	3
TAP	49	288	4
TAP	49	288	5
TAP	50	0	6
TAP	50	96	5
TAP	50	192	4
TAP	50	288	2
TAP	50	288	3
TAP	51	0	3
TAP	51	0	4
TAP	51	96	2
TAP	51	96	5
TAP	51	192	1
TAP	51	192	6
TAP	51	288	0
TAP	51	288	7
STR	52	0	0
SXL	52	0	0	96	480	3
STR	52	0	7
SXR	52	0	7	96	480	4
HLD	54	0	3	384
HLD	55	0	4	192
TAP	55	192	3
TAP	55	288	3
TAP	55	288	4
TAP	56	0	5
TAP	56	96	4
TAP	56	96	5
TAP	56	192	5
TAP	56	288	3
TAP	56	288	4
TAP	57	0	3
TAP	57	0	4
TAP	57	96	2
TAP	57	96	5
BRK	57	192	1
BRK	57	192	6
TAP	58	0	2
TAP	58	96	2
TAP	58	192	3
TAP	58	288	3
TAP	59	0	4
TAP	59	96	4
TAP	59	192	5
TAP	59	288	5
TAP	60	0	6
TAP	60	96	6
TAP	60	96	7
TAP	60	192	1
TAP	60	288	0
TAP	60	288	1
STR	61	0	0
SI_	61	0	0	96	192	3
STR	61	0	7
SI_	61	0	7	96	192	4
HLD	62	0	3	384
HLD	62	0	4	384
STR	63	240	3
SXR	63	240	3	96	816	0
STR	63	240	4
SXL	63	240	4	96	816	7
BRK	66	240	0
BRK	66	240	7

T_REC_TAP	196
T_REC_BRK	8
T_REC_XTP	0
T_REC_HLD	8
T_REC_XHO	0
T_REC_STR	19
T_REC_BST	0
T_REC_XST	0
T_REC_TTP	0
T_REC_THO	0
T_REC_SLD	19
T_REC_ALL	250
T_NUM_TAP	215
T_NUM_BRK	8
T_NUM_HLD	8
T_NUM_SLD	19
T_NUM_ALL	250
T_JUDGE_TAP	223
T_JUDGE_HLD	42
T_JUDGE_SLD	19
T_JUDGE_ALL	284
TTM_EACHPAIRS	49
TTM_SCR_TAP	107500
TTM_SCR_BRK	20800
TTM_SCR_HLD	8000
TTM_SCR_SLD	28500
TTM_SCR_ALL	164800
TTM_SCR_S	159100
TTM_SCR_SS	164000
TTM_RAT_ACV	10048

