VERSION	0.00.00	1.03.00
FES_MODE	0
BPM_DEF	140.000	140.000	140.000	140.000
MET_DEF	4	4
RESOLUTION	384
CLK_DEF	384
COMPATIBLE_CODE	MA2

BPM	0	0	140.000
MET	0	0	4	4
MET	62	0	8	13
MET	63	240	4	4

TAP	1	0	0
TAP	1	96	0
TAP	1	192	0
TAP	2	0	1
TAP	2	96	1
TAP	2	192	1
TAP	3	0	2
TAP	3	96	2
TAP	3	192	2
TAP	4	0	3
TAP	4	96	3
TAP	4	192	3
TAP	4	192	4
TAP	5	0	4
TAP	5	96	4
TAP	5	192	4
TAP	6	0	5
TAP	6	96	5
TAP	6	192	5
TAP	7	0	6
TAP	7	96	6
TAP	7	192	6
TAP	8	0	7
TAP	8	96	7
TAP	8	192	0
TAP	8	192	7
TAP	9	0	0
TAP	9	96	0
BRK	9	192	0
BRK	9	192	7
TAP	10	0	7
TAP	10	96	7
TAP	10	192	7
HLD	11	0	7	192
TAP	12	0	6
TAP	12	96	6
TAP	12	192	6
HLD	13	0	6	192
TAP	14	0	5
TAP	14	96	5
TAP	14	192	5
TAP	15	0	4
TAP	15	96	4
TAP	15	192	4
STR	16	0	4
SI_	16	0	4	96	288	7
TAP	18	0	0
TAP	18	96	0
TAP	18	192	0
HLD	19	0	0	192
TAP	20	0	1
TAP	20	96	1
TAP	20	192	1
HLD	21	0	1	192
TAP	22	0	2
TAP	22	96	2
TAP	22	192	2
TAP	23	0	3
TAP	23	96	3
TAP	23	192	3
STR	24	0	3
SI_	24	0	3	96	288	0
TAP	26	0	0
TAP	26	0	7
TAP	26	192	0
TAP	26	192	7
TAP	27	0	6
TAP	27	96	6
TAP	27	192	6
TAP	28	0	4
TAP	28	0	5
TAP	28	192	4
TAP	28	192	5
TAP	29	0	3
TAP	29	96	4
TAP	29	192	3
TAP	30	0	3
TAP	30	0	4
TAP	30	192	3
TAP	30	192	4
TAP	31	0	2
TAP	31	96	2
TAP	31	192	2
TAP	32	0	0
TAP	32	0	1
TAP	32	192	0
TAP	32	192	1
TAP	33	0	7
TAP	33	96	7
TAP	33	192	0
TAP	33	288	0
STR	34	0	7
SI_	34	0	7	96	288	3
TAP	36	0	2
TAP	36	0	3
TAP	37	0	4
TAP	37	0	5
TAP	38	0	6
TAP	38	0	7
TAP	39	0	0
TAP	39	0	1
TAP	40	0	1
TAP	40	192	1
TAP	41	0	2
TAP	41	192	2
STR	42	0	3
SI_	42	0	3	96	288	0
STR	42	0	4
SI_	42	0	4	96	288	7
TAP	44	0	7
TAP	44	96	7
TAP	44	192	7
TAP	45	0	6
TAP	45	96	6
TAP	45	192	6
TAP	46	0	5
TAP	46	96	5
TAP	46	192	5
TAP	47	0	4
TAP	47	96	3
TAP	47	192	4
TAP	48	0	3
TAP	48	96	3
TAP	48	192	3
TAP	49	0	2
TAP	49	96	2
TAP	49	192	2
TAP	50	0	1
TAP	50	96	1
TAP	50	192	1
TAP	51	0	0
TAP	51	96	0
TAP	51	192	0
STR	52	0	0
SI_	52	0	0	96	288	4
BRK	54	0	0
BRK	54	0	7
TAP	55	0	0
TAP	55	0	7
TAP	55	192	0
TAP	55	192	7
STR	56	0	0
SI_	56	0	0	96	288	3
STR	56	0	7
SI_	56	0	7	96	288	4
TAP	58	0	4
TAP	58	96	4
TAP	58	192	4
HLD	59	0	5	192
TAP	60	0	6
TAP	60	96	6
TAP	60	192	6
STR	61	0	7
SI_	61	0	7	96	288	3
HLD	62	200	3	176
HLD	62	200	4	176
STR	63	240	3
SI_	63	240	3	96	432	0
STR	63	240	4
SI_	63	240	4	96	432	7
TAP	65	336	0
TAP	65	336	7
TAP	66	96	0
TAP	66	96	7
BRK	66	240	1
BRK	66	240	6

T_REC_TAP	131
T_REC_BRK	6
T_REC_XTP	0
T_REC_HLD	7
T_REC_XHO	0
T_REC_STR	11
T_REC_BST	0
T_REC_XST	0
T_REC_TTP	0
T_REC_THO	0
T_REC_SLD	11
T_REC_ALL	166
T_NUM_TAP	142
T_NUM_BRK	6
T_NUM_HLD	7
T_NUM_SLD	11
T_NUM_ALL	166
T_JUDGE_TAP	148
T_JUDGE_HLD	28
T_JUDGE_SLD	11
T_JUDGE_ALL	187
TTM_EACHPAIRS	25
TTM_SCR_TAP	71000
TTM_SCR_BRK	15600
TTM_SCR_HLD	7000
TTM_SCR_SLD	16500
TTM_SCR_ALL	110100
TTM_SCR_S	106250
TTM_SCR_SS	109500
TTM_RAT_ACV	10054

