VERSION	0.00.00	1.03.00
FES_MODE	0
BPM_DEF	181.000	181.000	181.000	181.000
MET_DEF	4	4
RESOLUTION	384
CLK_DEF	384
COMPATIBLE_CODE	MA2

BPM	0	0	181.000

STR	2	0	0
SCR	2	0	0	96	96	2
STR	2	192	7
SUR	2	192	7	96	96	3
STR	3	0	0
SUL	3	0	0	96	96	4
STR	3	192	7
SCL	3	192	7	96	96	5
STR	4	0	0
SUL	4	0	0	96	96	4
STR	4	192	7
SUR	4	192	7	96	96	3
STR	5	0	0
SCR	5	0	0	96	240	6
TAP	5	192	7
HLD	5	240	7	144
STR	6	0	0
SCR	6	0	0	96	96	3
TAP	6	96	3
STR	6	192	7
SCL	6	192	7	96	96	4
TAP	6	288	4
STR	7	0	0
SCR	7	0	0	96	96	3
TAP	7	96	3
STR	7	192	7
SCL	7	192	7	96	96	4
TAP	7	288	4
STR	8	0	0
SCR	8	0	0	96	48	3
STR	8	96	7
SCL	8	96	7	96	48	4
STR	8	192	0
SCR	8	192	0	96	48	3
STR	8	288	7
SCL	8	288	7	96	48	4
STR	9	0	0
SCR	9	0	0	96	48	3
TAP	9	48	0
STR	9	96	7
SCL	9	96	7	96	48	4
TAP	9	144	7
TAP	9	192	0
TAP	9	240	0
TAP	9	288	0
TAP	9	288	7
TAP	10	0	4
TAP	10	0	5
TAP	10	48	4
TAP	10	48	5
STR	10	144	5
SUR	10	144	5	96	96	2
STR	10	144	6
SI_	10	144	6	96	96	3
TAP	11	0	0
TAP	11	0	1
TAP	11	48	0
HLD	11	48	1	96
HLD	11	144	3	96
TAP	11	240	2
TAP	11	288	2
TAP	11	288	3
TAP	12	0	6
TAP	12	0	7
TAP	12	48	6
TAP	12	48	7
TAP	12	144	1
TAP	12	144	2
TAP	12	240	4
TAP	12	240	5
TAP	12	336	3
TAP	12	336	7
TAP	13	0	2
TAP	13	0	6
STR	13	48	1
SCR	13	48	1	96	48	3
STR	13	48	5
SCR	13	48	5	96	48	7
TAP	13	240	0
TAP	13	240	4
TAP	13	288	3
TAP	13	288	7
TAP	14	0	2
TAP	14	0	3
TAP	14	48	2
TAP	14	48	3
STR	14	144	1
SI_	14	144	1	96	96	4
STR	14	144	2
SUL	14	144	2	96	96	5
TAP	15	0	6
TAP	15	0	7
HLD	15	48	6	96
TAP	15	48	7
HLD	15	144	4	96
TAP	15	240	5
TAP	15	288	4
TAP	15	288	5
TAP	16	0	0
TAP	16	0	1
TAP	16	48	0
TAP	16	48	1
TAP	16	144	5
TAP	16	144	6
TAP	16	240	2
TAP	16	240	3
TAP	16	336	1
TAP	16	336	6
TAP	17	0	3
TAP	17	0	4
TAP	17	48	3
TAP	17	48	4
TAP	17	144	2
TAP	17	192	3
TAP	17	240	4
TAP	17	288	5
TAP	18	0	3
TAP	18	0	4
TAP	18	96	2
TAP	18	96	4
TAP	18	192	1
TAP	18	192	4
STR	18	240	1
SI_	18	240	1	96	48	3
TAP	18	240	4
STR	18	336	4
SI_	18	336	4	96	48	0
STR	19	48	1
SI_	19	48	1	96	48	3
STR	19	144	4
SI_	19	144	4	96	48	0
HLD	19	240	1	144
TAP	20	0	2
TAP	20	96	2
TAP	20	96	3
TAP	20	192	1
TAP	20	192	2
TAP	20	240	1
TAP	20	240	2
STR	20	336	0
SCL	20	336	0	96	96	5
TAP	20	336	1
STR	21	48	5
SCL	21	48	5	96	96	2
STR	21	144	2
SCL	21	144	2	96	96	7
TAP	22	0	3
TAP	22	0	4
TAP	22	96	3
TAP	22	96	5
TAP	22	192	3
TAP	22	192	6
TAP	22	240	3
STR	22	240	6
SI_	22	240	6	96	48	4
STR	22	336	3
SI_	22	336	3	96	48	7
STR	23	48	6
SI_	23	48	6	96	48	4
STR	23	144	3
SI_	23	144	3	96	48	7
HLD	23	240	6	144
TAP	24	0	5
TAP	24	96	1
TAP	24	96	2
TAP	24	192	3
TAP	24	192	4
TAP	24	240	3
TAP	24	240	4
TAP	24	336	0
STR	24	336	6
SI_	24	336	6	96	48	2
STR	25	48	1
SI_	25	48	1	96	48	5
HLD	25	144	7	144
TAP	25	288	0
TAP	25	312	7
TAP	25	336	0
TAP	25	360	7
STR	26	0	0
SF_	26	0	0	96	48	4
TAP	26	192	2
TAP	26	192	6
TAP	26	240	2
TAP	26	240	6
STR	26	336	4
SI_	26	336	4	96	48	7
STR	27	48	3
SI_	27	48	3	96	48	0
STR	27	144	5
SCR	27	144	5	96	96	2
TAP	27	240	0
STR	28	0	3
SI_	28	0	3	96	48	0
STR	28	0	4
SI_	28	0	4	96	48	7
TAP	28	192	1
TAP	28	192	6
TAP	28	240	1
TAP	28	240	6
STR	28	336	3
SV_	28	336	3	96	48	4
STR	29	48	6
SCR	29	48	6	96	48	1
TAP	29	144	2
TAP	29	240	3
TAP	29	240	4
TAP	29	288	3
TAP	29	288	4
STR	30	0	1
SI_	30	0	1	96	48	4
STR	30	0	5
SI_	30	0	5	96	48	0
TAP	30	192	2
TAP	30	192	6
TAP	30	240	2
STR	30	240	6
SI_	30	240	6	96	48	3
STR	30	336	2
SI_	30	336	2	96	48	7
STR	31	48	6
SI_	31	48	6	96	48	3
STR	31	144	2
SI_	31	144	2	96	48	7
TAP	31	240	6
STR	32	0	1
SI_	32	0	1	96	48	6
STR	32	0	5
SI_	32	0	5	96	48	2
TAP	32	192	0
TAP	32	192	7
STR	32	240	0
SI_	32	240	0	96	48	4
TAP	32	240	7
STR	32	336	4
SF_	32	336	4	96	48	0
STR	33	144	2
SCL	33	144	2	96	96	4
TAP	33	144	6
BST	34	0	3
SI_	34	0	3	96	576	0
SCR	34	0	3	96	576	5
STR	36	0	7
SLL	36	0	7	96	96	2
STR	36	96	2
SCL	36	96	2	96	96	6
STR	36	192	6
SLR	36	192	6	96	96	3
STR	36	288	3
SCR	36	288	3	96	96	7
STR	37	0	7
SI_	37	0	7	96	96	2
STR	37	96	2
SSL	37	96	2	96	96	6
BRK	37	240	7
TAP	38	0	2
TAP	38	48	3
TAP	38	96	2
TAP	38	144	3
TAP	38	192	4
TAP	38	240	3
TAP	38	288	4
TAP	38	336	3
TAP	39	0	4
TAP	39	48	5
TAP	39	96	4
TAP	39	144	5
TAP	39	192	4
TAP	39	240	3
TAP	39	288	3
TAP	39	336	3
TAP	40	0	5
TAP	40	48	4
TAP	40	96	5
TAP	40	144	4
TAP	40	192	3
TAP	40	240	4
TAP	40	288	3
TAP	40	336	4
TAP	41	0	2
TAP	41	48	3
TAP	41	96	1
TAP	41	144	5
TAP	41	192	4
TAP	41	240	6
TAP	41	288	0
TAP	41	288	7
HLD	42	0	2	192
TAP	42	48	3
TAP	42	96	3
TAP	42	144	3
HLD	42	192	5	192
TAP	42	240	4
TAP	42	288	4
TAP	42	336	4
HLD	43	0	1	192
TAP	43	48	3
TAP	43	96	3
TAP	43	144	3
HLD	43	192	6	192
TAP	43	240	4
TAP	43	288	4
TAP	43	336	4
HLD	44	0	0	96
TAP	44	48	3
HLD	44	96	7	96
TAP	44	144	4
HLD	44	192	1	96
TAP	44	240	3
HLD	44	288	6	96
TAP	44	336	4
BRK	45	0	0
TAP	45	48	1
TAP	45	48	7
TAP	45	96	2
TAP	45	120	6
TAP	45	144	3
TAP	45	168	5
TAP	45	192	2
TAP	45	216	4
TAP	45	240	1
TAP	45	264	5
BRK	45	288	7
STR	46	0	0
SCR	46	0	0	96	48	3
TAP	46	48	7
TAP	46	96	6
TAP	46	144	5
STR	46	192	4
SCR	46	192	4	96	48	7
TAP	46	240	3
TAP	46	288	2
TAP	46	336	1
STR	47	0	0
SCR	47	0	0	96	48	3
TAP	47	48	7
TAP	47	96	6
TAP	47	144	5
STR	47	192	4
SCR	47	192	4	96	48	7
TAP	47	240	3
TAP	47	288	2
TAP	47	336	1
STR	48	0	0
SI_	48	0	0	96	48	3
TAP	48	96	0
STR	48	96	7
SI_	48	96	7	96	48	4
STR	48	192	6
SCL	48	192	6	96	96	0
TAP	48	192	7
TAP	48	288	0
TAP	48	288	6
TAP	49	0	4
TAP	49	48	3
TAP	49	96	2
TAP	49	144	1
TAP	49	192	0
TAP	49	240	7
TAP	49	288	6
TAP	49	336	5
STR	50	0	4
SCR	50	0	4	96	48	7
TAP	50	48	3
TAP	50	96	2
TAP	50	144	1
STR	50	192	0
SCR	50	192	0	96	48	3
TAP	50	240	7
TAP	50	288	6
TAP	50	336	5
STR	51	0	4
SCR	51	0	4	96	48	7
TAP	51	48	3
TAP	51	96	2
TAP	51	144	1
STR	51	192	0
SCR	51	192	0	96	48	3
TAP	51	240	7
TAP	51	288	6
TAP	51	336	5
STR	52	0	4
SCR	52	0	4	96	48	7
TAP	52	48	3
TAP	52	96	2
TAP	52	144	1
STR	52	192	0
SCR	52	192	0	96	48	3
TAP	52	240	7
TAP	52	288	6
TAP	52	336	5
TAP	53	0	3
TAP	53	0	4
TAP	53	48	2
TAP	53	72	3
TAP	53	96	1
TAP	53	144	5
TAP	53	168	4
TAP	53	192	6
TAP	53	240	2
TAP	53	264	3
TAP	53	288	1
TAP	53	336	5
TAP	53	360	4
STR	54	0	6
SI_	54	0	6	96	48	3
TAP	54	96	7
TAP	54	144	0
STR	54	192	1
SI_	54	192	1	96	48	4
TAP	54	240	5
TAP	54	288	5
STR	55	0	5
SI_	55	0	5	96	48	0
TAP	55	96	4
TAP	55	144	3
STR	55	192	2
SI_	55	192	2	96	48	7
TAP	55	240	6
TAP	55	288	6
STR	56	0	6
SCR	56	0	6	96	96	1
STR	56	96	1
SCR	56	96	1	96	96	4
STR	56	192	4
SCR	56	192	4	96	96	7
STR	56	288	7
SI_	56	288	7	96	48	3
STR	57	96	0
SCR	57	96	0	96	48	3
STR	57	96	4
SCR	57	96	4	96	48	7
TAP	57	192	0
TAP	57	192	4
TAP	57	288	2
TAP	57	288	6
BRK	58	0	0
TAP	58	0	5
TAP	58	48	5
TAP	58	96	5
BRK	58	144	0
TAP	58	144	5
TAP	58	192	5
TAP	58	240	5
BRK	58	288	0
TAP	58	288	5
TAP	58	336	5
TAP	59	0	5
BRK	59	48	0
TAP	59	48	5
TAP	59	96	5
TAP	59	144	5
BST	59	192	0
SI_	59	192	0	96	48	4
TAP	59	192	5
TAP	60	0	2
BRK	60	0	7
TAP	60	48	2
TAP	60	96	2
TAP	60	144	2
BRK	60	144	7
TAP	60	192	2
TAP	60	240	2
TAP	60	288	2
BRK	60	288	7
STR	60	336	7
SI_	60	336	7	96	48	4
STR	61	48	0
SI_	61	48	0	96	48	3
BRK	61	48	7
BRK	61	144	0
STR	61	144	1
SCR	61	144	1	96	96	7
BRK	61	240	1
BRK	61	240	7
BST	62	0	0
SF_	62	0	0	96	576	4
TAP	63	336	3
TAP	63	336	5
TAP	64	48	3
TAP	64	48	5
TAP	64	96	3
TAP	64	96	5
TAP	64	336	2
TAP	64	336	4
TAP	65	48	2
TAP	65	48	4
TAP	65	96	3
TAP	65	144	4
TAP	65	192	5
TAP	65	240	4
TAP	65	240	6
TAP	66	0	1
TAP	66	0	3
TAP	66	48	1
TAP	66	48	3
TAP	66	144	4
TAP	66	144	6
TAP	66	192	4
TAP	66	192	6
TAP	66	288	1
TAP	66	288	3
TAP	66	336	1
TAP	66	336	3
TAP	67	48	4
TAP	67	48	6
TAP	67	96	4
TAP	67	96	6
TAP	67	192	2
TAP	67	192	5
TAP	67	240	2
TAP	67	240	5
TAP	67	288	2
TAP	67	288	5
TAP	68	0	1
TAP	68	0	3
TAP	68	48	1
TAP	68	48	3
TAP	68	144	4
TAP	68	144	6
TAP	68	192	4
TAP	68	192	6
TAP	68	288	1
TAP	68	288	3
TAP	68	336	1
TAP	68	336	3
TAP	69	48	4
TAP	69	48	6
TAP	69	96	5
TAP	69	144	4
TAP	69	192	3
TAP	69	240	2
TAP	69	288	1
TAP	69	288	6
TAP	69	336	1
TAP	69	336	6
TAP	70	48	5
TAP	70	48	7
TAP	70	96	5
TAP	70	96	7
TAP	70	192	0
TAP	70	192	2
TAP	70	240	0
STR	70	240	2
SCR	70	240	2	96	432	5
TAP	70	336	7
TAP	75	0	5
TAP	75	96	5
TAP	75	192	5
TAP	75	240	4
TAP	75	264	4
TAP	75	288	5
TAP	76	0	1
TAP	76	0	3
STR	76	48	2
SCR	76	48	2	96	96	5
TAP	76	288	1
TAP	76	288	3
TAP	77	0	4
TAP	77	0	6
STR	77	48	5
SCL	77	48	5	96	96	2
TAP	77	288	4
TAP	77	288	6
TAP	78	0	1
TAP	78	24	3
TAP	78	48	1
TAP	78	72	3
TAP	78	96	2
TAP	78	120	4
TAP	78	144	2
TAP	78	168	4
TAP	78	192	3
TAP	78	216	5
TAP	78	240	3
TAP	78	264	5
TAP	78	288	4
TAP	78	312	6
TAP	78	336	4
TAP	78	360	6
TAP	79	0	5
TAP	79	48	4
TAP	79	96	3
TAP	79	144	2
TAP	79	192	1
BRK	79	240	0
BRK	79	264	0
BRK	79	288	7
TAP	80	0	0
TAP	80	0	1
TAP	80	48	2
TAP	80	48	7
TAP	80	96	3
TAP	80	120	3
TAP	80	144	4
TAP	80	192	6
TAP	80	192	7
TAP	80	240	0
TAP	80	240	5
TAP	80	288	4
TAP	80	312	4
TAP	80	336	3
TAP	81	0	0
TAP	81	0	1
TAP	81	48	2
TAP	81	48	7
TAP	81	96	3
TAP	81	120	3
TAP	81	144	4
TAP	81	192	6
TAP	81	192	7
TAP	81	240	0
TAP	81	240	5
TAP	81	288	4
TAP	81	312	4
TAP	81	336	3
STR	82	0	1
SI_	82	0	1	96	48	5
TAP	82	48	1
STR	82	96	0
SI_	82	96	0	96	48	4
TAP	82	144	0
STR	82	192	7
SI_	82	192	7	96	48	3
TAP	82	240	7
STR	82	288	6
SI_	82	288	6	96	48	2
TAP	82	336	6
STR	83	0	5
SI_	83	0	5	96	48	1
TAP	83	48	5
TAP	83	96	4
TAP	83	144	4
TAP	83	192	3
TAP	83	216	4
TAP	83	240	3
TAP	83	264	4
BRK	83	288	1
BRK	83	288	6
TAP	84	0	3
TAP	84	0	4
TAP	84	48	2
TAP	84	72	3
TAP	84	96	1
TAP	84	144	3
TAP	84	144	4
TAP	84	192	5
TAP	84	216	4
TAP	84	240	6
TAP	84	288	3
TAP	84	288	4
TAP	84	336	2
TAP	84	360	3
TAP	85	0	1
TAP	85	48	3
TAP	85	48	4
TAP	85	96	5
TAP	85	120	4
TAP	85	144	6
TAP	85	192	3
TAP	85	192	4
TAP	85	240	1
TAP	85	288	3
TAP	85	288	4
TAP	85	336	6
TAP	86	0	0
TAP	86	0	7
TAP	86	48	1
TAP	86	72	0
TAP	86	96	1
TAP	86	144	0
TAP	86	144	7
TAP	86	192	6
TAP	86	216	7
TAP	86	240	6
TAP	86	288	0
TAP	86	288	7
STR	86	336	0
SCL	86	336	0	96	48	5
STR	86	336	7
SCR	86	336	7	96	48	2
BST	87	48	0
SI_	87	48	0	96	48	4
BST	87	48	7
SI_	87	48	7	96	48	3
BST	87	144	0
SCR	87	144	0	96	48	3
BST	87	144	7
SCL	87	144	7	96	48	4
BRK	87	240	0
BRK	87	240	7
BST	88	0	0
SXL	88	0	0	96	576	3
BST	88	0	7
SXR	88	0	7	96	576	4
STR	90	0	7
SXR	90	0	7	96	192	7
STR	90	192	0
SXL	90	192	0	96	192	0
STR	91	0	7
SCL	91	0	7	96	240	1
TAP	91	192	0
HLD	91	240	0	144
STR	92	0	7
SXR	92	0	7	96	96	7
TAP	92	96	3
STR	92	192	0
SXL	92	192	0	96	96	0
TAP	92	288	4
STR	93	0	7
SXR	93	0	7	96	96	7
TAP	93	96	2
STR	93	192	0
SXL	93	192	0	96	96	0
TAP	93	288	5
STR	94	0	7
SUL	94	0	7	96	48	3
STR	94	96	0
SUR	94	96	0	96	48	4
STR	94	192	7
SUL	94	192	7	96	48	2
STR	94	288	0
SUR	94	288	0	96	48	5
STR	95	0	7
SCL	95	0	7	96	48	4
TAP	95	48	7
STR	95	96	0
SCR	95	96	0	96	48	3
TAP	95	144	0
TAP	95	192	7
TAP	95	240	7
TAP	95	288	0
TAP	95	288	7
TAP	96	0	2
TAP	96	0	3
TAP	96	48	2
TAP	96	48	3
STR	96	144	1
SCR	96	144	1	96	96	4
STR	96	144	2
SUL	96	144	2	96	96	5
TAP	97	0	0
TAP	97	0	1
TAP	97	48	2
HLD	97	48	7	96
HLD	97	144	4	96
TAP	97	240	5
TAP	97	288	3
TAP	97	288	6
TAP	98	0	0
TAP	98	0	1
TAP	98	48	0
STR	98	48	1
SI_	98	48	1	96	48	4
STR	98	144	0
SI_	98	144	0	96	48	5
TAP	98	240	1
TAP	98	336	0
TAP	98	336	4
TAP	99	0	1
TAP	99	0	5
STR	99	48	2
SCL	99	48	2	96	48	0
STR	99	48	6
SCL	99	48	6	96	48	4
TAP	99	240	3
TAP	99	240	7
TAP	99	288	0
TAP	99	288	4
TAP	100	0	4
TAP	100	0	5
TAP	100	48	4
TAP	100	48	5
STR	100	144	5
SUR	100	144	5	96	96	2
STR	100	144	6
SCL	100	144	6	96	96	3
TAP	101	0	6
TAP	101	0	7
HLD	101	48	0	96
TAP	101	48	5
HLD	101	144	3	96
TAP	101	240	2
TAP	101	288	1
TAP	101	288	4
TAP	102	0	6
TAP	102	0	7
STR	102	48	6
SI_	102	48	6	96	48	3
TAP	102	48	7
STR	102	144	7
SI_	102	144	7	96	48	2
TAP	102	240	6
TAP	102	336	1
TAP	102	336	6
TAP	103	0	3
TAP	103	0	4
TAP	103	48	3
TAP	103	48	4
TAP	103	144	5
TAP	103	192	4
TAP	103	240	3
TAP	103	288	2
TAP	103	336	1
TAP	103	336	6
TAP	105	48	0
TAP	105	48	7
TAP	105	96	3
TAP	105	96	4
TAP	105	192	6
TAP	105	192	7
TAP	105	240	2
TAP	105	240	3
TAP	105	288	0
TAP	105	288	1
TAP	105	336	4
TAP	105	336	5

T_REC_TAP	516
T_REC_BRK	21
T_REC_XTP	0
T_REC_HLD	21
T_REC_XHO	0
T_REC_STR	120
T_REC_BST	9
T_REC_XST	0
T_REC_TTP	0
T_REC_THO	0
T_REC_SLD	130
T_REC_ALL	817
T_NUM_TAP	636
T_NUM_BRK	30
T_NUM_HLD	21
T_NUM_SLD	130
T_NUM_ALL	817
T_JUDGE_TAP	666
T_JUDGE_HLD	55
T_JUDGE_SLD	130
T_JUDGE_ALL	851
TTM_EACHPAIRS	168
TTM_SCR_TAP	318000
TTM_SCR_BRK	78000
TTM_SCR_HLD	21000
TTM_SCR_SLD	195000
TTM_SCR_ALL	612000
TTM_SCR_S	590750
TTM_SCR_SS	609000
TTM_RAT_ACV	10049

