VERSION	0.00.00	1.03.00
FES_MODE	0
BPM_DEF	181.000	181.000	181.000	181.000
MET_DEF	4	4
RESOLUTION	384
CLK_DEF	384
COMPATIBLE_CODE	MA2

BPM	0	0	181.000

HLD	2	0	5	384
TAP	2	192	4
TAP	2	288	3
HLD	3	0	2	384
TAP	3	192	3
TAP	3	288	4
HLD	4	0	5	384
TAP	4	192	4
TAP	4	288	3
HLD	5	0	2	384
TAP	5	192	3
TAP	5	288	4
TAP	6	0	5
TAP	6	96	5
TAP	6	192	5
TAP	6	288	3
TAP	6	288	5
TAP	7	0	2
TAP	7	96	2
TAP	7	192	2
TAP	7	288	2
TAP	7	288	4
TAP	8	0	5
TAP	8	96	5
TAP	8	192	5
TAP	8	288	3
TAP	8	288	5
TAP	9	0	2
TAP	9	48	2
TAP	9	96	5
TAP	9	144	5
TAP	9	192	3
TAP	9	240	3
TAP	9	288	3
TAP	9	288	4
HLD	10	0	5	96
TAP	10	96	4
STR	10	192	6
SI_	10	192	6	96	96	3
HLD	11	0	2	96
TAP	11	96	3
STR	11	192	1
SI_	11	192	1	96	96	4
HLD	12	0	5	96
TAP	12	96	4
STR	12	192	6
SI_	12	192	6	96	96	3
HLD	13	0	2	96
TAP	13	96	3
STR	13	192	1
SI_	13	192	1	96	96	4
HLD	14	0	6	96
TAP	14	96	2
STR	14	192	5
SCL	14	192	5	96	96	2
HLD	15	0	1	96
TAP	15	96	5
STR	15	192	2
SCR	15	192	2	96	96	5
HLD	16	0	6	96
TAP	16	96	2
STR	16	192	5
SCL	16	192	5	96	96	2
BRK	17	0	0
HLD	18	0	2	1440
TAP	18	0	3
TAP	18	96	3
TAP	18	192	4
TAP	18	288	4
TAP	19	0	3
TAP	19	96	4
TAP	19	192	3
TAP	19	288	4
TAP	20	0	3
TAP	20	96	3
TAP	20	192	5
TAP	20	288	5
TAP	21	0	4
TAP	21	96	6
TAP	21	192	5
TAP	21	288	4
TAP	22	0	4
HLD	22	0	5	1056
TAP	22	96	4
TAP	22	192	3
TAP	22	288	3
TAP	23	0	4
TAP	23	96	3
TAP	23	192	4
TAP	23	288	3
TAP	24	0	4
TAP	24	96	4
TAP	24	192	2
TAP	24	288	2
STR	25	0	1
SI_	25	0	1	96	96	4
STR	25	0	6
SI_	25	0	6	96	96	3
TAP	25	288	1
TAP	25	288	6
TAP	26	0	4
HLD	26	0	5	96
TAP	26	96	3
HLD	26	192	2	96
TAP	26	192	3
TAP	26	288	4
TAP	27	0	4
HLD	27	0	5	96
TAP	27	96	3
TAP	27	192	0
TAP	27	288	2
HLD	28	0	2	96
TAP	28	0	3
TAP	28	96	4
TAP	28	192	4
HLD	28	192	5	96
TAP	28	288	3
HLD	29	0	2	96
TAP	29	0	3
TAP	29	96	4
TAP	29	192	7
TAP	29	288	5
TAP	30	0	4
HLD	30	0	5	96
TAP	30	96	3
HLD	30	192	2	96
TAP	30	192	3
TAP	30	288	4
TAP	31	0	4
HLD	31	0	5	96
TAP	31	96	3
TAP	31	192	7
TAP	31	288	1
HLD	32	0	2	96
TAP	32	0	3
TAP	32	96	4
TAP	32	192	4
HLD	32	192	5	96
TAP	32	288	3
HLD	33	0	2	96
TAP	33	0	3
TAP	33	96	4
TAP	33	192	0
STR	33	288	6
SCR	33	288	6	96	384	5
TAP	35	240	3
TAP	35	240	4
TAP	35	288	3
TAP	35	288	4
TAP	36	0	5
TAP	36	96	0
TAP	36	192	3
TAP	36	288	5
TAP	37	0	1
TAP	37	96	7
TAP	37	192	4
TAP	37	288	2
TAP	37	288	5
HLD	38	0	3	672
TAP	38	0	4
TAP	38	96	4
TAP	38	192	4
TAP	38	240	4
TAP	38	288	4
TAP	39	0	7
TAP	39	96	6
TAP	39	192	5
TAP	39	288	4
TAP	40	0	3
HLD	40	0	4	672
TAP	40	96	3
TAP	40	192	3
TAP	40	240	3
TAP	40	288	3
TAP	41	0	1
TAP	41	96	3
TAP	41	192	0
TAP	41	288	2
TAP	42	0	4
TAP	42	48	4
TAP	42	96	3
TAP	42	144	3
TAP	42	192	5
TAP	42	240	5
TAP	42	288	3
TAP	42	336	3
TAP	43	0	4
TAP	43	48	4
TAP	43	96	2
TAP	43	144	2
TAP	43	192	5
TAP	43	240	5
TAP	43	288	1
TAP	43	336	1
TAP	44	0	6
TAP	44	48	6
TAP	44	96	2
TAP	44	144	2
TAP	44	192	7
TAP	44	240	7
TAP	44	288	0
TAP	44	336	0
BRK	45	0	1
BRK	45	0	6
STR	45	288	0
SI_	45	288	0	96	48	2
STR	45	288	7
SI_	45	288	7	96	48	3
TAP	46	96	1
TAP	46	96	5
TAP	46	144	1
TAP	46	144	5
STR	46	288	0
SI_	46	288	0	96	48	4
STR	46	288	7
SI_	46	288	7	96	48	5
TAP	47	96	2
TAP	47	96	6
TAP	47	144	2
TAP	47	144	6
TAP	47	240	0
TAP	47	288	0
TAP	48	0	6
TAP	48	0	7
TAP	48	96	4
TAP	48	96	5
TAP	48	192	2
TAP	48	192	3
TAP	48	288	0
TAP	48	288	1
TAP	49	0	2
TAP	49	0	3
TAP	49	96	4
TAP	49	96	5
TAP	49	192	3
TAP	49	192	6
STR	49	288	0
SI_	49	288	0	96	48	4
STR	49	288	7
SI_	49	288	7	96	48	5
TAP	50	96	2
TAP	50	96	6
TAP	50	144	2
TAP	50	144	6
STR	50	288	0
SI_	50	288	0	96	48	2
STR	50	288	7
SI_	50	288	7	96	48	3
TAP	51	96	1
TAP	51	96	5
TAP	51	144	1
TAP	51	144	5
TAP	51	288	7
HLD	52	0	7	144
STR	52	144	0
SCR	52	144	0	96	240	7
TAP	53	192	0
TAP	53	192	7
STR	53	288	0
SI_	53	288	0	96	48	2
STR	53	288	7
SI_	53	288	7	96	48	3
TAP	54	96	1
TAP	54	96	5
TAP	54	144	1
TAP	54	144	5
STR	54	288	0
SI_	54	288	0	96	48	4
STR	54	288	7
SI_	54	288	7	96	48	5
TAP	55	96	2
TAP	55	96	6
TAP	55	144	2
TAP	55	144	6
TAP	55	240	0
TAP	55	288	0
TAP	56	0	1
TAP	56	0	3
TAP	56	96	2
TAP	56	96	4
TAP	56	192	3
TAP	56	192	5
TAP	56	288	4
TAP	56	288	6
TAP	57	0	0
TAP	57	0	7
HLD	57	96	6	96
HLD	57	192	4	96
HLD	57	288	3	96
TAP	58	0	1
TAP	58	96	5
TAP	58	144	4
TAP	58	144	5
TAP	58	240	2
TAP	58	288	2
TAP	58	288	3
TAP	59	0	5
TAP	59	48	4
TAP	59	48	6
TAP	59	144	2
TAP	59	192	1
TAP	59	192	3
TAP	59	288	3
TAP	59	288	4
STR	60	0	5
SCR	60	0	5	96	192	2
TAP	61	48	1
TAP	61	48	6
TAP	61	144	2
TAP	61	144	5
HLD	61	240	3	96
HLD	61	240	4	96
HLD	62	0	2	720
HLD	62	0	6	720
TAP	64	336	3
TAP	64	336	5
TAP	65	48	3
TAP	65	48	5
TAP	65	96	3
TAP	65	96	5
HLD	65	192	2	96
HLD	65	192	4	96
TAP	66	0	3
TAP	66	0	5
TAP	66	48	3
TAP	66	48	5
TAP	66	144	2
TAP	66	144	4
TAP	66	192	2
TAP	66	192	4
TAP	66	288	4
TAP	66	288	5
TAP	66	336	4
TAP	66	336	5
TAP	67	48	2
TAP	67	48	3
TAP	67	96	2
TAP	67	96	3
TAP	67	192	4
TAP	67	240	4
TAP	67	288	3
TAP	67	288	4
TAP	68	0	4
TAP	68	0	6
TAP	68	48	4
TAP	68	48	6
TAP	68	144	1
TAP	68	144	3
TAP	68	192	1
TAP	68	192	3
TAP	68	288	0
HLD	68	336	0	144
TAP	69	48	7
TAP	69	96	7
TAP	69	192	5
TAP	69	240	4
TAP	69	288	3
TAP	69	336	2
TAP	70	48	2
TAP	70	48	4
TAP	70	96	2
TAP	70	96	4
TAP	70	192	3
TAP	70	192	5
TAP	70	240	3
TAP	70	240	5
TAP	70	336	1
TAP	70	336	6
STR	71	288	0
SCR	71	288	0	96	288	3
STR	73	288	7
SCL	73	288	7	96	288	4
TAP	75	0	3
TAP	75	48	3
TAP	75	96	4
TAP	75	144	4
TAP	75	192	3
TAP	75	240	3
TAP	75	288	2
TAP	75	288	5
TAP	76	0	2
TAP	76	0	3
TAP	76	48	2
TAP	76	48	3
HLD	76	144	1	144
HLD	76	144	4	144
TAP	77	0	4
TAP	77	0	5
TAP	77	48	4
TAP	77	48	5
TAP	77	144	3
TAP	77	144	6
TAP	77	288	2
HLD	78	0	0	144
STR	78	144	7
SCL	78	144	7	96	240	0
STR	79	288	0
SI_	79	288	0	96	48	4
STR	79	288	5
SI_	79	288	5	96	48	7
TAP	80	96	2
TAP	80	96	6
TAP	80	144	2
TAP	80	144	6
STR	80	288	2
SI_	80	288	2	96	48	0
STR	80	288	7
SI_	80	288	7	96	48	3
TAP	81	96	1
TAP	81	96	5
TAP	81	144	1
TAP	81	144	5
TAP	81	240	7
TAP	81	288	7
TAP	82	0	4
TAP	82	0	6
TAP	82	96	3
TAP	82	96	5
TAP	82	192	2
TAP	82	192	4
TAP	82	288	1
TAP	82	288	3
TAP	83	0	0
TAP	83	0	7
HLD	83	96	1	96
HLD	83	192	3	96
HLD	83	288	4	96
TAP	84	0	6
TAP	84	96	2
TAP	84	144	2
TAP	84	144	3
TAP	84	240	5
TAP	84	288	4
TAP	84	288	5
TAP	85	0	2
TAP	85	48	1
TAP	85	48	3
TAP	85	144	5
TAP	85	192	4
TAP	85	192	6
TAP	85	288	3
TAP	85	288	4
STR	86	0	2
SCL	86	0	2	96	192	5
TAP	87	48	4
TAP	87	48	6
TAP	87	144	1
TAP	87	144	3
HLD	87	240	0	96
HLD	87	240	7	96
HLD	88	0	1	672
HLD	88	0	5	2880
TAP	90	192	3
TAP	91	192	3
TAP	92	0	4
TAP	92	96	4
TAP	92	192	3
TAP	92	288	3
TAP	93	0	4
TAP	93	96	4
TAP	93	192	2
TAP	93	288	2
TAP	94	0	3
TAP	94	96	3
TAP	94	192	4
TAP	94	288	3
TAP	95	0	2
TAP	95	96	1
STR	95	192	0
SI_	95	192	0	96	48	4
HLD	96	0	5	96
TAP	96	96	4
TAP	96	192	0
STR	96	192	6
SI_	96	192	6	96	96	3
HLD	97	0	2	96
TAP	97	96	3
STR	97	192	1
SI_	97	192	1	96	96	4
TAP	97	192	7
HLD	98	0	5	96
TAP	98	96	4
TAP	98	192	0
STR	98	192	6
SI_	98	192	6	96	96	3
HLD	99	0	2	96
TAP	99	96	3
STR	99	192	1
SI_	99	192	1	96	96	4
TAP	99	192	7
HLD	100	0	6	96
TAP	100	96	3
TAP	100	192	0
STR	100	192	5
SCL	100	192	5	96	96	2
HLD	101	0	1	96
TAP	101	96	4
STR	101	192	2
SCR	101	192	2	96	96	5
TAP	101	192	7
HLD	102	0	6	96
TAP	102	96	3
TAP	102	192	0
TAP	102	192	5
TAP	102	288	2
TAP	102	288	6
TAP	103	0	7
TAP	103	48	7
TAP	103	96	1
TAP	103	144	1
TAP	103	192	5
TAP	103	240	5
TAP	103	288	3
HLD	103	336	3	480
TAP	105	48	4
TAP	105	96	5
TAP	105	144	3
TAP	105	192	2
STR	105	240	1
SI_	105	240	1	96	48	5

T_REC_TAP	381
T_REC_BRK	3
T_REC_XTP	0
T_REC_HLD	56
T_REC_XHO	0
T_REC_STR	40
T_REC_BST	0
T_REC_XST	0
T_REC_TTP	0
T_REC_THO	0
T_REC_SLD	40
T_REC_ALL	520
T_NUM_TAP	421
T_NUM_BRK	3
T_NUM_HLD	56
T_NUM_SLD	40
T_NUM_ALL	520
T_JUDGE_TAP	424
T_JUDGE_HLD	317
T_JUDGE_SLD	40
T_JUDGE_ALL	781
TTM_EACHPAIRS	123
TTM_SCR_TAP	210500
TTM_SCR_BRK	7800
TTM_SCR_HLD	56000
TTM_SCR_SLD	60000
TTM_SCR_ALL	334300
TTM_SCR_S	324000
TTM_SCR_SS	334000
TTM_RAT_ACV	10008

