VERSION	0.00.00	1.03.00
FES_MODE	0
BPM_DEF	181.000	181.000	181.000	181.000
MET_DEF	4	4
RESOLUTION	384
CLK_DEF	384
COMPATIBLE_CODE	MA2

BPM	0	0	181.000

STR	6	0	4
SXL	6	0	4	96	480	7
STR	8	0	0
SXL	8	0	0	96	480	3
TAP	10	0	5
TAP	10	96	4
TAP	10	192	4
TAP	10	192	5
TAP	11	0	2
TAP	11	96	3
TAP	11	192	2
TAP	11	192	3
TAP	12	0	2
TAP	12	96	3
TAP	12	192	4
TAP	12	288	5
TAP	13	0	3
TAP	13	0	4
TAP	13	96	3
TAP	13	96	4
TAP	13	192	2
TAP	13	192	5
TAP	14	0	2
TAP	14	96	3
TAP	14	192	2
TAP	14	192	3
TAP	15	0	5
TAP	15	96	4
TAP	15	192	4
TAP	15	192	5
TAP	16	0	5
TAP	16	96	4
TAP	16	192	3
TAP	16	288	2
TAP	17	0	3
TAP	17	0	4
TAP	17	96	3
TAP	17	96	4
TAP	17	192	2
TAP	17	192	5
HLD	18	0	5	192
TAP	18	192	4
TAP	19	0	5
TAP	19	192	4
TAP	19	192	5
HLD	20	0	4	192
TAP	20	192	3
TAP	21	0	4
TAP	21	96	4
TAP	21	192	3
TAP	21	192	4
HLD	22	0	2	192
TAP	22	192	3
TAP	23	0	2
TAP	23	192	2
TAP	23	192	3
HLD	24	0	3	192
TAP	24	192	4
TAP	25	0	3
TAP	25	96	3
TAP	25	192	3
TAP	25	192	4
TAP	26	0	5
TAP	26	96	4
TAP	26	192	4
TAP	26	192	5
TAP	27	0	4
TAP	27	96	3
TAP	27	192	3
TAP	27	192	4
TAP	28	0	3
TAP	28	96	2
TAP	28	192	2
TAP	28	192	3
TAP	29	0	4
TAP	29	96	3
TAP	29	192	2
TAP	29	192	5
TAP	30	0	2
TAP	30	96	3
TAP	30	192	2
TAP	30	192	3
TAP	31	0	3
TAP	31	96	4
TAP	31	192	3
TAP	31	192	4
TAP	32	0	4
TAP	32	96	5
TAP	32	192	4
TAP	32	192	5
TAP	33	0	3
TAP	33	96	4
TAP	33	192	2
TAP	33	192	5
STR	34	0	3
SXR	34	0	3	96	480	0
STR	34	0	4
SXL	34	0	4	96	480	7
STR	36	0	0
SI_	36	0	0	96	192	3
STR	36	0	7
SI_	36	0	7	96	192	4
TAP	37	0	3
TAP	37	0	4
HLD	38	0	2	384
HLD	39	0	3	384
HLD	40	0	4	384
HLD	41	0	5	192
TAP	41	192	4
TAP	42	0	5
TAP	42	96	5
TAP	42	192	4
TAP	42	288	4
TAP	43	0	2
TAP	43	96	2
TAP	43	192	3
TAP	43	288	3
TAP	44	0	3
TAP	44	0	4
TAP	44	96	3
TAP	44	96	4
TAP	44	192	2
TAP	44	192	5
TAP	44	288	2
TAP	44	288	5
HLD	45	0	1	192
HLD	45	0	6	192
TAP	46	0	0
TAP	46	96	1
TAP	46	192	0
TAP	46	192	1
TAP	46	288	0
TAP	46	288	1
TAP	47	0	7
TAP	47	96	6
TAP	47	192	6
TAP	47	192	7
TAP	47	288	6
TAP	47	288	7
TAP	48	0	0
TAP	48	96	1
TAP	48	192	0
TAP	48	192	1
TAP	48	288	0
TAP	48	288	1
TAP	49	0	2
TAP	49	96	3
TAP	49	192	3
TAP	49	192	4
TAP	50	0	4
TAP	50	96	5
TAP	50	192	4
TAP	50	192	5
TAP	50	288	4
TAP	50	288	5
TAP	51	0	3
TAP	51	96	2
TAP	51	192	2
TAP	51	192	3
TAP	51	288	2
TAP	51	288	3
TAP	52	0	5
TAP	52	96	4
TAP	52	96	5
TAP	52	192	2
TAP	52	288	2
TAP	52	288	3
BRK	53	0	2
BRK	53	0	5
TAP	53	192	0
TAP	53	192	7
TAP	54	0	0
TAP	54	0	1
TAP	54	96	0
TAP	54	96	1
TAP	54	192	2
TAP	54	192	7
TAP	55	0	6
TAP	55	0	7
TAP	55	96	6
TAP	55	96	7
TAP	55	192	0
TAP	55	192	5
TAP	56	0	0
TAP	56	0	1
TAP	56	96	0
TAP	56	96	1
TAP	56	192	6
TAP	56	192	7
TAP	56	288	6
TAP	56	288	7
TAP	57	0	0
TAP	57	0	7
TAP	57	96	0
TAP	57	96	7
TAP	57	192	1
TAP	57	192	6
STR	58	0	7
SI_	58	0	7	96	192	4
STR	59	0	3
SI_	59	0	3	96	192	0
STR	60	0	0
SI_	60	0	0	96	192	3
STR	60	0	7
SI_	60	0	7	96	192	4
HLD	61	0	2	240
HLD	61	0	5	240
BST	62	0	2
SCL	62	0	2	96	528	5
STR	64	0	5
SCR	64	0	5	96	528	2
STR	66	0	3
SXR	66	0	3	96	480	0
STR	68	0	7
SXR	68	0	7	96	480	4
HLD	70	0	3	240
HLD	70	0	4	240
TAP	70	336	3
TAP	70	336	4
HLD	72	0	2	384
HLD	73	0	3	384
HLD	74	0	4	384
HLD	75	0	5	192
TAP	75	192	4
HLD	76	0	5	192
TAP	76	96	4
TAP	76	192	4
HLD	77	0	2	192
TAP	77	96	3
TAP	77	192	3
TAP	78	0	3
TAP	78	0	4
TAP	78	96	3
TAP	78	96	4
TAP	78	192	2
TAP	78	192	5
TAP	78	288	2
TAP	78	288	5
HLD	79	0	1	192
HLD	79	0	6	192
TAP	80	0	7
TAP	80	96	6
TAP	80	192	0
TAP	80	192	5
TAP	80	288	6
TAP	80	288	7
TAP	81	0	0
TAP	81	96	1
TAP	81	192	2
TAP	81	192	7
TAP	81	288	0
TAP	81	288	1
TAP	82	0	6
TAP	82	0	7
TAP	82	96	6
TAP	82	96	7
TAP	82	192	0
TAP	82	192	1
TAP	82	288	0
TAP	82	288	1
TAP	83	0	0
TAP	83	0	7
TAP	83	96	0
TAP	83	96	7
TAP	83	192	1
TAP	83	192	6
STR	84	0	0
SI_	84	0	0	96	192	3
STR	85	0	4
SI_	85	0	4	96	192	7
STR	86	0	0
SI_	86	0	0	96	192	3
STR	86	0	7
SI_	86	0	7	96	192	4
HLD	87	0	2	240
HLD	87	0	5	240
BST	88	0	5
SCR	88	0	5	96	528	2
STR	90	0	2
SCL	90	0	2	96	528	5
HLD	92	0	5	576
TAP	92	192	4
TAP	93	0	4
TAP	93	192	4
HLD	94	0	2	576
TAP	94	192	3
TAP	95	0	3
TAP	95	192	3
TAP	96	0	1
TAP	96	96	0
TAP	96	192	0
TAP	96	192	1
TAP	97	0	6
TAP	97	96	7
TAP	97	192	6
TAP	97	192	7
TAP	98	0	6
TAP	98	96	7
TAP	98	192	0
TAP	98	288	1
TAP	99	0	0
TAP	99	0	7
TAP	99	96	0
TAP	99	96	7
TAP	99	192	1
TAP	99	192	6
TAP	100	0	2
TAP	100	96	3
TAP	100	192	2
TAP	100	192	3
TAP	101	0	5
TAP	101	96	4
TAP	101	192	4
TAP	101	192	5
TAP	102	0	5
TAP	102	96	4
TAP	102	192	3
TAP	102	288	2
TAP	103	0	2
TAP	103	0	3
TAP	103	96	3
TAP	103	96	4
TAP	103	192	4
TAP	103	192	5
HLD	103	288	3	720
HLD	103	288	4	720
BRK	105	336	2
BRK	105	336	5

T_REC_TAP	256
T_REC_BRK	4
T_REC_XTP	0
T_REC_HLD	28
T_REC_XHO	0
T_REC_STR	18
T_REC_BST	2
T_REC_XST	0
T_REC_TTP	0
T_REC_THO	0
T_REC_SLD	20
T_REC_ALL	328
T_NUM_TAP	274
T_NUM_BRK	6
T_NUM_HLD	28
T_NUM_SLD	20
T_NUM_ALL	328
T_JUDGE_TAP	280
T_JUDGE_HLD	180
T_JUDGE_SLD	20
T_JUDGE_ALL	480
TTM_EACHPAIRS	92
TTM_SCR_TAP	137000
TTM_SCR_BRK	15600
TTM_SCR_HLD	28000
TTM_SCR_SLD	30000
TTM_SCR_ALL	210600
TTM_SCR_S	203700
TTM_SCR_SS	210000
TTM_RAT_ACV	10028

