VERSION	0.00.00	1.03.00
FES_MODE	0
BPM_DEF	181.000	181.000	181.000	181.000
MET_DEF	4	4
RESOLUTION	384
CLK_DEF	384
COMPATIBLE_CODE	MA2

BPM	0	0	181.000
MET	0	0	4	4

HLD	2	0	3	384
HLD	4	0	4	384
TAP	6	0	3
TAP	6	192	3
TAP	7	0	3
TAP	7	192	3
TAP	8	0	4
TAP	8	192	4
TAP	9	0	4
BRK	9	192	4
TAP	10	0	3
TAP	10	96	3
TAP	10	192	3
TAP	11	0	3
TAP	11	96	3
TAP	11	192	3
TAP	12	0	2
TAP	12	96	2
TAP	12	192	2
TAP	13	0	2
TAP	13	96	2
TAP	13	192	2
TAP	14	0	1
TAP	14	96	1
TAP	14	192	1
TAP	15	0	1
TAP	15	96	1
TAP	15	192	1
TAP	16	0	0
TAP	16	96	0
TAP	16	192	0
BRK	17	0	0
BRK	17	0	7
TAP	18	0	7
TAP	18	192	7
TAP	19	0	7
TAP	19	192	7
TAP	20	0	6
TAP	20	192	6
TAP	21	0	6
TAP	21	0	7
TAP	22	0	5
TAP	22	192	5
TAP	23	0	5
TAP	23	192	5
TAP	24	0	4
TAP	24	192	4
TAP	25	0	3
TAP	25	0	4
TAP	26	0	3
TAP	26	96	3
TAP	26	192	3
TAP	27	0	3
TAP	27	96	3
TAP	27	192	3
TAP	28	0	2
TAP	28	96	2
TAP	28	192	2
TAP	29	0	2
TAP	29	96	2
TAP	29	192	2
TAP	29	192	3
TAP	30	0	1
TAP	30	96	1
TAP	30	192	1
TAP	31	0	1
TAP	31	96	1
TAP	31	192	1
TAP	32	0	0
TAP	32	96	0
TAP	32	192	0
TAP	33	0	0
TAP	33	96	0
TAP	33	192	0
TAP	33	192	7
HLD	34	0	0	384
HLD	36	0	7	384
STR	38	0	0
SI_	38	0	0	96	288	3
STR	40	0	7
SI_	40	0	7	96	288	4
STR	42	0	1
SI_	42	0	1	96	288	5
TAP	44	0	7
TAP	44	96	7
TAP	44	192	0
TAP	44	288	0
BRK	45	0	1
BRK	45	0	6
TAP	46	0	0
TAP	46	96	0
TAP	46	192	0
TAP	47	0	1
TAP	47	96	1
TAP	47	192	1
TAP	48	0	2
TAP	48	96	2
TAP	48	192	2
HLD	49	0	2	192
HLD	49	0	3	192
TAP	50	0	4
TAP	50	96	4
TAP	50	192	4
TAP	51	0	5
TAP	51	96	5
TAP	51	192	5
TAP	52	0	6
TAP	52	96	6
TAP	52	192	6
HLD	53	0	0	192
HLD	53	0	7	192
TAP	54	0	7
TAP	54	96	7
TAP	54	192	7
TAP	55	0	6
TAP	55	96	6
TAP	55	192	6
TAP	56	0	5
TAP	56	96	5
TAP	56	192	5
HLD	57	0	4	192
HLD	57	0	5	192
TAP	58	0	3
TAP	58	96	3
TAP	58	192	3
TAP	59	0	2
TAP	59	96	2
TAP	59	192	2
TAP	60	0	1
TAP	60	96	1
TAP	60	192	1
HLD	61	0	0	192
HLD	61	0	7	192
STR	62	0	0
SI_	62	0	0	96	288	3
STR	62	0	7
SI_	62	0	7	96	288	4
STR	66	0	0
SI_	66	0	0	96	288	4
STR	68	0	7
SI_	68	0	7	96	288	3
HLD	70	0	0	336
HLD	70	0	7	336
TAP	72	0	0
TAP	73	0	0
TAP	74	0	1
TAP	74	192	1
TAP	75	0	1
TAP	76	0	2
TAP	77	0	2
TAP	78	0	3
TAP	78	192	3
BRK	79	0	3
BRK	79	0	4
TAP	80	0	4
TAP	80	96	4
TAP	80	192	4
TAP	81	0	5
TAP	81	96	5
TAP	81	192	5
TAP	82	0	6
TAP	82	96	6
TAP	82	192	6
HLD	83	0	0	192
HLD	83	0	7	192
TAP	84	0	0
TAP	84	96	0
TAP	84	192	0
TAP	85	0	1
TAP	85	96	1
TAP	85	192	1
TAP	86	0	2
TAP	86	96	2
TAP	86	192	2
HLD	87	0	3	192
HLD	87	0	4	192
STR	88	0	3
SI_	88	0	3	96	288	0
STR	88	0	4
SI_	88	0	4	96	288	7
HLD	92	0	7	384
HLD	94	0	0	384
TAP	96	0	7
TAP	96	96	7
TAP	96	192	7
TAP	97	0	6
TAP	97	96	6
TAP	97	192	6
TAP	98	0	5
TAP	98	96	5
TAP	98	192	5
TAP	99	0	4
TAP	99	96	4
TAP	99	192	3
TAP	99	192	4
TAP	100	0	3
TAP	100	96	3
TAP	100	192	3
TAP	101	0	2
TAP	101	96	2
TAP	101	192	2
TAP	102	0	1
TAP	102	96	1
TAP	102	192	1
TAP	103	0	0
TAP	103	96	0
TAP	103	192	0
TAP	103	192	7
HLD	104	0	6	192
STR	105	0	6
SI_	105	0	6	96	288	2

T_REC_TAP	163
T_REC_BRK	7
T_REC_XTP	0
T_REC_HLD	21
T_REC_XHO	0
T_REC_STR	10
T_REC_BST	0
T_REC_XST	0
T_REC_TTP	0
T_REC_THO	0
T_REC_SLD	10
T_REC_ALL	211
T_NUM_TAP	173
T_NUM_BRK	7
T_NUM_HLD	21
T_NUM_SLD	10
T_NUM_ALL	211
T_JUDGE_TAP	180
T_JUDGE_HLD	114
T_JUDGE_SLD	10
T_JUDGE_ALL	304
TTM_EACHPAIRS	18
TTM_SCR_TAP	86500
TTM_SCR_BRK	18200
TTM_SCR_HLD	21000
TTM_SCR_SLD	15000
TTM_SCR_ALL	140700
TTM_SCR_S	135800
TTM_SCR_SS	140000
TTM_RAT_ACV	10050

