VERSION 0.00.00 1.03.00 FES_MODE 0 BPM_DEF 180.000 180.000 180.000 180.000 MET_DEF 4 4 RESOLUTION 384 CLK_DEF 384 COMPATIBLE_CODE MA2 BPM 0 0 180.000 HLD 1 0 2 336 BST 1 0 6 SXR 1 0 6 96 480 3 HLD 2 0 2 288 TAP 2 288 7 STR 3 0 1 SXL 3 0 1 96 480 4 HLD 3 0 5 336 HLD 4 0 5 288 TAP 4 288 0 STR 5 0 4 SCL 5 0 4 96 192 1 HLD 5 0 6 336 HLD 6 0 1 384 STR 6 0 3 SCR 6 0 3 96 192 6 STR 7 0 6 SI_ 7 0 6 96 144 2 STR 7 288 0 SI_ 7 288 0 96 336 4 TAP 7 288 7 TAP 8 0 7 TAP 8 24 6 TAP 8 48 5 TAP 8 96 1 TAP 8 120 2 TAP 8 144 3 TAP 8 192 7 TAP 8 216 6 TAP 8 240 5 TAP 9 0 3 HLD 9 0 5 96 TAP 9 96 3 TAP 9 144 3 HLD 9 144 5 96 TAP 9 240 3 TAP 9 288 3 HLD 9 288 6 96 TAP 10 48 3 HLD 10 48 6 96 TAP 10 96 3 TAP 10 192 7 TAP 10 240 3 TAP 10 288 3 TAP 10 288 7 TAP 10 336 3 HLD 11 0 2 96 TAP 11 0 4 TAP 11 96 4 HLD 11 144 2 96 TAP 11 144 4 TAP 11 240 4 HLD 11 288 1 96 TAP 11 288 4 HLD 12 48 1 96 TAP 12 48 4 TAP 12 96 4 TAP 12 192 0 TAP 12 240 4 TAP 12 288 0 TAP 12 288 4 TAP 12 336 4 TAP 13 0 3 TAP 13 0 5 STR 13 96 0 SCR 13 96 0 96 96 3 STR 13 192 3 SCR 13 192 3 96 96 6 STR 13 288 6 SCR 13 288 6 96 96 1 STR 14 0 1 SCR 14 0 1 96 96 4 STR 14 96 4 SCR 14 96 4 96 96 7 STR 14 192 7 SCR 14 192 7 96 96 2 STR 14 288 2 SCR 14 288 2 96 180 0 HLD 15 0 5 384 TAP 15 192 1 TAP 15 204 2 TAP 15 216 3 TAP 15 228 4 TAP 15 252 6 TAP 15 264 7 TAP 15 276 0 STR 15 288 1 SSR 15 288 1 96 96 5 TAP 15 300 2 TAP 15 312 3 TAP 15 324 4 TAP 15 348 6 TAP 15 360 7 TAP 15 372 0 STR 16 192 7 SSL 16 192 7 96 48 3 SSR 16 192 7 96 48 3 STR 17 0 1 SI_ 17 0 1 96 48 5 STR 17 0 5 SI_ 17 0 5 96 48 1 TAP 17 192 2 TAP 17 192 6 STR 17 240 0 SCR 17 240 0 96 96 5 TAP 17 288 1 TAP 17 288 7 HLD 17 336 0 144 TAP 18 96 7 TAP 18 192 5 TAP 18 240 4 TAP 18 288 3 TAP 18 288 6 TAP 19 0 1 TAP 19 0 4 TAP 19 48 2 TAP 19 72 2 TAP 19 96 3 TAP 19 144 0 TAP 19 192 4 TAP 19 192 5 TAP 19 240 7 TAP 19 288 2 TAP 19 288 3 HLD 19 336 0 144 TAP 19 336 7 TAP 20 0 1 TAP 20 12 2 TAP 20 24 3 TAP 20 36 4 TAP 20 48 5 TAP 20 96 7 TAP 20 192 5 TAP 20 240 4 TAP 20 288 3 TAP 20 288 6 TAP 21 0 1 TAP 21 0 4 TAP 21 48 0 TAP 21 96 1 TAP 21 96 4 TAP 21 144 7 TAP 21 192 1 TAP 21 192 4 TAP 21 240 6 TAP 21 288 1 TAP 21 288 4 TAP 21 336 5 STR 22 0 1 SCR 22 0 1 96 48 4 STR 22 0 4 SCR 22 0 4 96 48 7 TAP 22 96 1 TAP 22 96 4 TAP 22 192 2 TAP 22 240 3 TAP 22 288 1 TAP 22 288 4 TAP 23 0 3 STR 23 0 6 SCL 23 0 6 96 48 3 TAP 23 48 2 TAP 23 96 3 TAP 23 96 6 TAP 23 192 3 STR 23 192 6 SCL 23 192 6 96 48 3 TAP 23 240 7 TAP 23 288 3 TAP 23 288 6 STR 24 0 3 SCL 24 0 3 96 48 0 STR 24 0 6 SCL 24 0 6 96 48 3 STR 24 96 3 SI_ 24 96 3 96 48 7 TAP 24 96 6 STR 24 192 0 SCR 24 192 0 96 48 3 STR 24 192 3 SCR 24 192 3 96 48 6 TAP 24 288 0 TAP 24 288 3 STR 25 0 7 SF_ 25 0 7 96 48 3 TAP 25 192 1 TAP 25 192 5 STR 25 240 7 SCL 25 240 7 96 96 2 TAP 25 288 0 TAP 25 288 6 HLD 25 336 7 144 TAP 26 96 0 TAP 26 192 2 TAP 26 240 3 TAP 26 288 1 TAP 26 288 4 TAP 27 0 3 TAP 27 0 6 TAP 27 48 5 TAP 27 72 5 TAP 27 96 4 TAP 27 144 7 TAP 27 192 2 TAP 27 192 3 TAP 27 240 0 TAP 27 288 4 TAP 27 288 5 TAP 27 336 0 HLD 27 336 7 144 TAP 28 0 6 TAP 28 12 5 TAP 28 24 4 TAP 28 36 3 TAP 28 48 2 TAP 28 96 0 TAP 28 192 2 TAP 28 240 3 TAP 28 288 1 TAP 28 288 4 TAP 29 0 3 STR 29 0 6 SCL 29 0 6 96 48 3 STR 29 96 6 SCR 29 96 6 96 48 1 TAP 29 144 2 TAP 29 192 6 TAP 29 288 2 TAP 29 288 3 STR 29 336 1 SCR 29 336 1 96 48 4 STR 30 0 4 SCL 30 0 4 96 96 6 STR 30 48 1 SCL 30 48 1 96 48 6 TAP 30 192 5 TAP 30 240 4 TAP 30 288 3 TAP 30 288 6 STR 31 0 1 SI_ 31 0 1 96 48 4 TAP 31 0 4 TAP 31 48 0 TAP 31 96 1 TAP 31 96 4 TAP 31 144 5 TAP 31 192 3 STR 31 192 6 SI_ 31 192 6 96 48 3 TAP 31 240 7 TAP 31 288 3 TAP 31 288 6 TAP 31 336 2 STR 32 0 1 SCR 32 0 1 96 48 4 STR 32 0 4 SCR 32 0 4 96 48 7 TAP 32 96 1 TAP 32 96 4 STR 32 192 0 SF_ 32 192 0 96 48 4 TAP 32 240 0 BRK 32 288 0 TAP 33 0 2 TAP 33 0 6 STR 33 48 1 SCR 33 48 1 96 48 4 TAP 33 96 0 TAP 33 144 1 HLD 33 144 7 96 STR 33 240 0 SCR 33 240 0 96 48 3 TAP 33 288 7 TAP 33 336 0 HLD 33 336 6 96 STR 34 48 7 SCR 34 48 7 96 48 2 TAP 34 96 6 HLD 34 144 5 96 TAP 34 144 7 TAP 34 240 4 TAP 34 288 3 TAP 34 288 6 TAP 35 0 1 TAP 35 0 5 STR 35 48 6 SCL 35 48 6 96 48 3 TAP 35 96 7 HLD 35 144 0 96 TAP 35 144 6 STR 35 240 7 SCL 35 240 7 96 48 4 TAP 35 288 0 HLD 35 336 1 96 TAP 35 336 7 STR 36 48 0 SCL 36 48 0 96 48 5 TAP 36 96 1 TAP 36 144 0 HLD 36 144 2 96 TAP 36 240 3 TAP 36 288 1 TAP 36 288 4 TAP 37 0 3 TAP 37 0 6 STR 37 48 7 SCL 37 48 7 96 48 4 TAP 37 96 0 HLD 37 144 1 96 TAP 37 144 7 STR 37 240 0 SCR 37 240 0 96 48 3 TAP 37 288 7 TAP 37 336 0 HLD 37 336 6 96 STR 38 48 7 SI_ 38 48 7 96 48 3 TAP 38 96 0 HLD 38 144 1 96 TAP 38 144 7 TAP 38 240 6 TAP 38 288 1 TAP 38 288 6 STR 39 0 7 SI_ 39 0 7 96 48 3 STR 39 48 0 SI_ 39 48 0 96 48 4 TAP 39 96 7 TAP 39 144 0 TAP 39 192 5 STR 39 240 2 SI_ 39 240 2 96 48 7 STR 39 240 6 SI_ 39 240 6 96 48 3 TAP 39 336 2 TAP 39 336 6 TAP 40 48 3 TAP 40 48 7 TAP 40 96 0 TAP 40 96 4 STR 40 144 1 SI_ 40 144 1 96 48 4 STR 40 144 5 SI_ 40 144 5 96 48 0 TAP 40 240 1 TAP 40 240 5 HLD 41 0 7 48 TAP 41 48 3 HLD 41 96 6 48 TAP 41 144 2 HLD 41 192 5 48 TAP 41 240 1 HLD 41 288 4 48 HLD 41 336 0 48 HLD 42 0 3 48 TAP 42 48 7 HLD 42 96 2 48 TAP 42 144 6 HLD 42 192 1 48 TAP 42 240 5 HLD 42 288 0 48 HLD 42 336 4 48 STR 43 0 7 SI_ 43 0 7 96 48 3 STR 43 48 3 SI_ 43 48 3 96 48 7 TAP 43 144 0 STR 43 192 0 SCR 43 192 0 96 48 3 TAP 43 288 7 TAP 43 304 6 TAP 43 320 5 TAP 43 336 4 STR 44 48 7 SV_ 44 48 7 96 48 4 STR 44 96 0 SI_ 44 96 0 96 48 2 STR 44 144 7 SI_ 44 144 7 96 48 5 STR 44 192 0 SV_ 44 192 0 96 48 3 TAP 44 240 7 TAP 44 288 0 STR 45 0 1 SI_ 45 0 1 96 48 3 STR 45 0 5 SI_ 45 0 5 96 48 7 TAP 45 48 0 TAP 45 48 4 TAP 45 192 2 TAP 45 192 6 TAP 45 204 1 TAP 45 204 5 TAP 45 216 0 STR 45 216 4 SCR 45 216 4 96 72 7 TAP 45 336 0 TAP 45 348 1 TAP 45 360 2 STR 45 372 3 SCL 45 372 3 96 48 0 TAP 46 96 7 TAP 46 108 6 TAP 46 120 5 TAP 46 132 4 STR 46 192 2 SI_ 46 192 2 96 48 4 STR 46 192 6 SI_ 46 192 6 96 48 0 TAP 46 240 0 TAP 46 240 4 TAP 47 0 3 TAP 47 0 7 TAP 47 48 6 TAP 47 96 0 TAP 47 96 5 TAP 47 144 1 TAP 47 192 2 TAP 47 192 6 TAP 47 240 5 TAP 47 288 1 TAP 47 288 4 TAP 47 336 2 STR 48 0 3 SCL 48 0 3 96 48 0 STR 48 0 7 SCL 48 0 7 96 48 4 TAP 48 96 3 TAP 48 96 7 TAP 48 192 0 TAP 48 204 1 TAP 48 216 2 TAP 48 228 3 TAP 48 240 4 TAP 48 252 5 TAP 48 264 6 TAP 48 276 7 STR 48 288 0 SI_ 48 288 0 96 48 3 STR 48 288 4 SUR 48 288 4 96 1344 6 BST 49 0 0 SUR 49 0 0 96 1248 2 BRK 49 0 4 HLD 53 0 4 672 HLD 53 0 6 288 HLD 54 0 3 456 HLD 55 0 1 72 HLD 55 144 2 72 HLD 55 144 4 72 TAP 55 288 3 TAP 55 288 5 HLD 56 0 4 72 HLD 56 0 6 72 HLD 56 144 3 72 HLD 56 144 5 72 TAP 56 288 2 TAP 56 288 4 HLD 57 0 1 96 TAP 57 0 3 TAP 57 96 3 HLD 57 144 1 96 TAP 57 144 4 TAP 57 240 4 HLD 57 288 1 96 TAP 57 288 5 TAP 58 0 5 HLD 58 48 1 96 TAP 58 48 6 TAP 58 144 6 HLD 58 192 3 96 HLD 58 192 4 96 TAP 59 0 4 HLD 59 0 6 96 TAP 59 96 4 HLD 59 144 6 96 TAP 59 192 3 TAP 59 288 3 HLD 59 288 6 96 TAP 60 0 2 HLD 60 48 6 96 TAP 60 96 2 TAP 60 192 1 TAP 60 192 6 TAP 60 288 3 TAP 60 304 4 TAP 60 320 3 TAP 60 336 4 TAP 60 352 3 TAP 60 368 4 TAP 61 0 3 TAP 61 48 3 TAP 61 96 4 TAP 61 144 4 TAP 61 192 3 TAP 61 192 5 TAP 61 240 3 TAP 61 288 2 TAP 61 288 4 TAP 61 336 4 TAP 62 0 3 TAP 62 0 6 TAP 62 48 3 TAP 62 48 6 TAP 62 96 1 TAP 62 96 4 TAP 62 144 1 TAP 62 144 4 TAP 62 192 3 TAP 62 216 4 TAP 62 240 2 TAP 62 264 5 TAP 62 288 1 TAP 62 312 6 TAP 62 336 0 TAP 62 360 7 TAP 63 0 1 TAP 63 24 0 TAP 63 48 2 TAP 63 72 7 TAP 63 96 3 TAP 63 120 6 TAP 63 144 4 TAP 63 168 5 TAP 63 192 2 TAP 63 216 3 TAP 63 240 1 TAP 63 264 4 STR 63 288 0 SCR 63 288 0 96 144 7 TAP 63 304 5 TAP 63 320 7 TAP 63 336 6 TAP 63 352 7 TAP 63 368 6 BRK 64 0 0 STR 64 192 4 SF_ 64 192 4 96 48 0 TAP 65 0 2 TAP 65 0 6 TAP 65 96 1 TAP 65 96 3 TAP 65 144 2 TAP 65 192 4 TAP 65 192 6 STR 65 240 5 SCL 65 240 5 96 80 7 HLD 65 336 1 144 TAP 65 336 5 TAP 66 48 6 TAP 66 64 5 TAP 66 80 4 TAP 66 96 3 STR 66 192 7 SI_ 66 192 7 96 48 3 TAP 66 240 0 TAP 66 240 6 TAP 66 288 7 TAP 67 0 1 TAP 67 0 5 TAP 67 96 4 TAP 67 96 6 TAP 67 120 5 TAP 67 144 4 TAP 67 144 6 TAP 67 192 1 TAP 67 192 3 TAP 67 216 2 STR 67 240 1 SI_ 67 240 1 96 48 5 STR 67 240 3 SI_ 67 240 3 96 48 7 TAP 67 336 1 TAP 67 336 3 STR 68 48 1 SI_ 68 48 1 96 48 3 STR 68 96 5 SI_ 68 96 5 96 48 7 STR 68 144 1 SI_ 68 144 1 96 48 7 STR 68 192 5 SI_ 68 192 5 96 48 3 TAP 68 240 1 TAP 68 288 5 STR 69 0 2 SCL 69 0 2 96 48 0 STR 69 0 6 SCL 69 0 6 96 48 4 STR 69 96 2 SCR 69 96 2 96 48 4 STR 69 96 6 SCR 69 96 6 96 48 0 STR 69 192 2 SI_ 69 192 2 96 48 6 STR 69 192 6 SI_ 69 192 6 96 48 2 TAP 70 0 0 TAP 70 0 4 TAP 70 24 1 TAP 70 48 2 TAP 70 72 3 TAP 70 96 0 TAP 70 96 4 TAP 70 120 5 TAP 70 144 6 TAP 70 168 7 TAP 70 192 0 TAP 70 192 4 TAP 70 216 3 TAP 70 240 2 TAP 70 264 1 STR 70 288 0 SXL 70 288 0 96 288 3 STR 70 288 4 SXL 70 288 4 96 288 7 TAP 70 312 3 TAP 70 312 7 TAP 70 336 2 TAP 70 336 6 TAP 70 360 1 TAP 70 360 5 STR 72 0 1 SV_ 72 0 1 96 48 4 STR 72 0 5 SV_ 72 0 5 96 48 0 STR 72 192 6 SLL 72 192 6 96 48 2 STR 72 192 7 SLL 72 192 7 96 48 3 STR 72 240 2 SLL 72 240 2 96 48 6 STR 72 240 3 SLL 72 240 3 96 48 7 BRK 73 96 1 STR 73 96 4 SI_ 73 96 4 96 48 2 TAP 73 168 4 STR 73 192 0 SI_ 73 192 0 96 48 4 TAP 73 264 0 STR 73 288 6 SI_ 73 288 6 96 48 0 TAP 73 360 6 STR 74 0 2 SI_ 74 0 2 96 48 6 TAP 74 72 2 HLD 74 96 5 72 TAP 74 168 4 TAP 74 192 5 TAP 74 216 4 TAP 74 240 5 TAP 74 264 4 TAP 74 288 3 TAP 74 312 4 TAP 74 336 3 TAP 74 360 2 TAP 75 0 3 TAP 75 24 2 TAP 75 48 3 HLD 75 96 0 72 STR 75 96 1 SI_ 75 96 1 96 48 4 TAP 75 168 1 TAP 75 192 0 TAP 75 240 5 STR 75 288 6 SI_ 75 288 6 96 48 3 HLD 75 288 7 72 TAP 75 360 6 TAP 76 0 7 TAP 76 48 2 TAP 76 96 1 TAP 76 96 4 TAP 76 144 5 TAP 76 192 3 TAP 76 192 6 TAP 76 240 2 TAP 76 256 7 HLD 76 272 0 88 STR 76 288 1 SCR 76 288 1 96 96 6 TAP 76 360 1 TAP 77 0 0 BRK 77 96 7 TAP 77 168 3 TAP 77 168 4 STR 77 264 0 SI_ 77 264 0 96 48 5 STR 77 264 7 SI_ 77 264 7 96 48 2 TAP 77 288 1 TAP 77 288 6 TAP 77 336 0 TAP 77 336 7 STR 78 48 3 SI_ 78 48 3 96 48 7 STR 78 48 4 SI_ 78 48 4 96 48 0 TAP 78 96 1 TAP 78 96 6 TAP 78 144 3 TAP 78 144 4 TAP 78 240 1 TAP 78 240 6 BRK 78 288 1 BRK 78 288 6 TAP 79 0 0 TAP 79 0 4 TAP 79 48 0 TAP 79 48 4 TAP 79 96 1 TAP 79 96 5 TAP 79 144 2 TAP 79 144 6 TAP 79 192 3 TAP 79 192 7 STR 79 240 3 SI_ 79 240 3 96 48 1 STR 79 240 7 SI_ 79 240 7 96 48 5 TAP 79 288 0 TAP 79 288 4 STR 79 336 3 SI_ 79 336 3 96 48 6 STR 79 336 7 SI_ 79 336 7 96 48 2 STR 80 48 3 SI_ 80 48 3 96 48 7 STR 80 48 7 SI_ 80 48 7 96 48 3 TAP 80 144 3 TAP 80 144 7 BRK 80 240 1 BRK 80 240 5 STR 81 0 0 SI_ 81 0 0 96 48 4 STR 81 0 4 SI_ 81 0 4 96 48 0 TAP 81 12 1 TAP 81 12 5 TAP 81 24 2 TAP 81 24 6 TAP 81 36 3 TAP 81 36 7 BRK 81 96 0 BRK 81 96 4 TAP 81 192 2 TAP 81 192 6 TAP 81 240 1 TAP 81 264 0 TAP 81 288 1 TAP 81 336 6 TAP 81 360 7 TAP 82 0 6 STR 82 48 0 SCR 82 48 0 96 48 3 TAP 82 48 5 TAP 82 96 6 TAP 82 144 0 TAP 82 144 7 TAP 82 240 4 TAP 82 240 5 TAP 82 288 3 TAP 82 288 6 TAP 83 0 1 TAP 83 0 4 TAP 83 48 2 TAP 83 72 3 TAP 83 96 1 TAP 83 144 5 TAP 83 168 4 TAP 83 192 6 TAP 83 240 2 TAP 83 264 3 TAP 83 288 0 TAP 83 336 5 TAP 83 360 4 STR 84 0 7 SCR 84 0 7 96 192 7 STR 84 48 1 SCR 84 48 1 96 144 7 STR 84 96 3 SCR 84 96 3 96 96 7 STR 84 144 5 SCR 84 144 5 96 48 7 BRK 84 240 0 STR 85 0 0 SI_ 85 0 0 96 48 4 STR 85 0 7 SI_ 85 0 7 96 48 3 TAP 85 16 1 TAP 85 16 6 TAP 85 32 2 TAP 85 32 5 TAP 85 48 3 TAP 85 48 4 BRK 85 96 0 BRK 85 96 7 TAP 85 192 2 TAP 85 192 5 TAP 85 240 6 TAP 85 264 7 TAP 85 288 6 TAP 85 336 1 TAP 85 360 0 TAP 86 0 1 TAP 86 48 5 TAP 86 72 4 TAP 86 96 5 TAP 86 144 2 TAP 86 168 3 TAP 86 192 2 TAP 86 216 4 TAP 86 240 3 TAP 86 264 5 TAP 86 288 4 TAP 86 312 6 TAP 86 336 3 TAP 86 360 7 TAP 87 0 2 TAP 87 24 6 TAP 87 48 1 TAP 87 72 5 TAP 87 96 0 TAP 87 120 4 TAP 87 144 7 TAP 87 168 3 TAP 87 192 2 TAP 87 192 6 TAP 87 216 3 TAP 87 216 7 TAP 87 240 0 TAP 87 240 4 TAP 87 264 1 TAP 87 264 5 TAP 87 288 2 TAP 87 288 6 TAP 87 312 3 TAP 87 312 7 STR 87 336 0 SI_ 87 336 0 96 48 4 STR 87 336 4 SI_ 87 336 4 96 48 0 STR 88 48 0 SCR 88 48 0 96 72 4 STR 88 48 4 SCR 88 48 4 96 72 0 STR 88 144 0 SLL 88 144 0 96 96 4 STR 88 144 4 SLL 88 144 4 96 96 0 STR 89 0 2 SI_ 89 0 2 96 48 7 STR 89 0 6 SI_ 89 0 6 96 48 3 STR 89 48 3 SCR 89 48 3 96 48 6 STR 89 48 7 SCR 89 48 7 96 48 2 STR 89 240 2 SI_ 89 240 2 96 48 4 STR 89 240 5 SI_ 89 240 5 96 48 1 TAP 89 288 1 TAP 89 288 4 STR 90 48 1 SI_ 90 48 1 96 48 5 STR 90 48 6 SI_ 90 48 6 96 48 0 TAP 90 96 0 TAP 90 96 5 TAP 90 240 3 TAP 90 240 7 TAP 90 288 3 TAP 90 288 7 STR 91 0 1 SI_ 91 0 1 96 48 4 STR 91 0 5 SI_ 91 0 5 96 48 0 STR 91 48 0 SCL 91 48 0 96 48 5 STR 91 48 4 SCL 91 48 4 96 48 1 STR 91 240 2 SI_ 91 240 2 96 48 6 STR 91 240 5 SI_ 91 240 5 96 48 3 TAP 91 288 3 TAP 91 288 6 STR 92 48 1 SI_ 92 48 1 96 48 7 STR 92 48 6 SI_ 92 48 6 96 48 2 TAP 92 96 2 TAP 92 96 7 TAP 92 240 0 TAP 92 240 4 TAP 92 288 0 TAP 92 288 4 STR 93 0 3 SV_ 93 0 3 96 48 0 STR 93 0 7 SV_ 93 0 7 96 48 4 STR 93 48 0 SCR 93 48 0 96 48 3 STR 93 48 4 SCR 93 48 4 96 48 7 STR 93 240 2 SV_ 93 240 2 96 48 0 STR 93 240 6 SV_ 93 240 6 96 48 4 TAP 93 288 1 TAP 93 288 5 STR 94 48 1 SV_ 94 48 1 96 48 7 STR 94 48 5 SV_ 94 48 5 96 48 3 TAP 94 96 2 TAP 94 96 6 TAP 94 240 0 TAP 94 240 4 TAP 94 288 0 TAP 94 288 4 TAP 95 0 1 TAP 95 16 2 TAP 95 32 3 TAP 95 48 6 TAP 95 64 5 TAP 95 80 4 TAP 95 96 0 TAP 95 112 1 TAP 95 128 2 TAP 95 144 7 TAP 95 160 6 TAP 95 176 5 TAP 95 192 3 TAP 95 192 4 TAP 95 208 2 TAP 95 224 1 STR 95 240 0 SCR 95 240 0 96 48 3 STR 95 240 7 SCL 95 240 7 96 48 4 TAP 95 288 1 TAP 95 288 6 BRK 95 336 0 BRK 95 336 7 T_REC_TAP 559 T_REC_BRK 16 T_REC_XTP 0 T_REC_HLD 63 T_REC_XHO 0 T_REC_STR 152 T_REC_BST 2 T_REC_XST 0 T_REC_TTP 0 T_REC_THO 0 T_REC_SLD 155 T_REC_ALL 947 T_NUM_TAP 711 T_NUM_BRK 18 T_NUM_HLD 63 T_NUM_SLD 155 T_NUM_ALL 947 T_JUDGE_TAP 729 T_JUDGE_HLD 180 T_JUDGE_SLD 155 T_JUDGE_ALL 1064 TTM_EACHPAIRS 216 TTM_SCR_TAP 355500 TTM_SCR_BRK 46800 TTM_SCR_HLD 63000 TTM_SCR_SLD 232500 TTM_SCR_ALL 697800 TTM_SCR_S 675150 TTM_SCR_SS 696000 TTM_RAT_ACV 10025