VERSION	0.00.00	1.03.00
FES_MODE	0
BPM_DEF	180.000	180.000	180.000	180.000
MET_DEF	4	4
RESOLUTION	384
CLK_DEF	384
COMPATIBLE_CODE	MA2

BPM	0	0	180.000

BRK	1	0	1
BRK	1	0	6
TAP	1	96	2
TAP	1	144	3
TAP	1	240	3
TAP	1	288	4
HLD	1	336	3	48
TAP	2	0	4
TAP	2	48	3
HLD	2	144	5	144
HLD	2	192	4	96
TAP	3	0	3
TAP	3	0	5
TAP	3	96	5
TAP	3	144	4
TAP	3	240	3
TAP	3	288	4
HLD	3	336	3	48
TAP	4	0	4
TAP	4	48	3
HLD	4	144	2	144
TAP	4	144	3
HLD	4	192	3	96
TAP	5	0	2
TAP	5	0	4
TAP	5	96	2
TAP	5	144	3
TAP	5	240	3
TAP	5	288	4
HLD	5	336	3	48
TAP	6	0	4
TAP	6	96	5
TAP	6	144	4
TAP	6	240	3
TAP	6	240	4
TAP	6	288	3
HLD	6	288	4	192
HLD	7	0	2	96
HLD	7	288	3	0
HLD	7	292	2	0
TAP	8	0	5
TAP	8	24	4
TAP	8	48	5
TAP	8	96	4
TAP	8	120	3
TAP	8	144	4
TAP	8	192	2
TAP	8	216	3
TAP	8	240	2
TAP	8	288	2
TAP	8	336	2
HLD	9	0	2	96
TAP	9	0	3
TAP	9	96	3
HLD	9	144	2	96
TAP	9	240	4
HLD	9	288	2	96
TAP	10	0	5
HLD	10	48	1	96
STR	10	144	6
SLR	10	144	6	96	96	4
TAP	10	192	0
HLD	11	0	5	96
TAP	11	96	4
HLD	11	144	5	96
TAP	11	240	3
HLD	11	288	5	96
TAP	12	0	2
HLD	12	48	6	96
STR	12	144	1
SLL	12	144	1	96	96	3
TAP	12	192	7
HLD	13	0	2	144
TAP	13	0	6
TAP	13	48	6
TAP	13	96	5
TAP	13	144	5
TAP	13	192	0
HLD	13	192	4	144
TAP	13	240	0
TAP	13	288	1
TAP	13	336	1
TAP	14	0	3
HLD	14	0	7	144
TAP	14	48	3
TAP	14	96	2
TAP	14	144	2
HLD	14	192	1	144
TAP	14	192	4
TAP	14	240	4
TAP	14	288	5
TAP	14	336	5
BST	15	0	2
SLL	15	0	2	96	192	5
BST	15	0	6
SLR	15	0	6	96	192	3
STR	16	0	1
SCR	16	0	1	96	48	4
STR	16	0	7
SCL	16	0	7	96	48	4
TAP	16	192	3
TAP	16	216	4
TAP	16	240	3
BRK	16	288	1
BRK	16	288	6
STR	17	0	1
SI_	17	0	1	96	48	6
STR	17	0	5
SI_	17	0	5	96	48	2
TAP	17	96	1
TAP	17	96	5
TAP	17	192	0
TAP	17	240	1
TAP	17	288	2
STR	17	336	2
SLR	17	336	2	96	96	0
TAP	17	336	5
STR	18	0	5
SI_	18	0	5	96	48	7
TAP	18	192	1
TAP	18	240	2
TAP	18	288	3
TAP	18	288	6
STR	19	0	7
SI_	19	0	7	96	48	4
TAP	19	48	0
TAP	19	96	1
TAP	19	144	2
STR	19	192	3
SI_	19	192	3	96	48	0
TAP	19	240	5
TAP	19	288	6
TAP	19	336	7
STR	20	0	7
SI_	20	0	7	96	48	3
TAP	20	12	6
TAP	20	24	5
TAP	20	36	4
TAP	20	48	3
TAP	20	192	5
TAP	20	240	4
TAP	20	288	3
TAP	20	288	6
STR	21	0	0
SI_	21	0	0	96	48	4
TAP	21	0	4
TAP	21	96	7
TAP	21	144	6
TAP	21	192	3
TAP	21	192	5
TAP	21	240	2
TAP	21	288	1
STR	21	336	1
SLR	21	336	1	96	96	7
TAP	21	336	4
STR	22	0	4
SI_	22	0	4	96	48	6
TAP	22	192	0
TAP	22	240	7
TAP	22	288	1
STR	22	288	6
SLL	22	288	6	96	96	0
TAP	23	0	0
TAP	23	48	1
STR	23	96	2
SLL	23	96	2	96	96	4
TAP	23	144	2
TAP	23	192	4
TAP	23	240	5
TAP	23	288	6
TAP	23	336	7
STR	24	0	3
SI_	24	0	3	96	48	1
STR	24	0	7
SI_	24	0	7	96	48	5
STR	24	96	3
SI_	24	96	3	96	48	6
STR	24	96	7
SI_	24	96	7	96	48	2
STR	24	192	3
SI_	24	192	3	96	48	7
STR	24	192	7
SI_	24	192	7	96	48	3
TAP	24	288	3
TAP	24	288	7
STR	25	0	1
SI_	25	0	1	96	48	4
STR	25	0	4
SI_	25	0	4	96	48	0
TAP	25	96	1
TAP	25	96	4
TAP	25	192	7
TAP	25	240	6
TAP	25	288	5
TAP	25	336	2
STR	25	336	5
SLR	25	336	5	96	96	3
STR	26	0	2
SI_	26	0	2	96	48	0
TAP	26	192	4
TAP	26	240	5
TAP	26	288	3
TAP	26	288	6
STR	27	0	0
SI_	27	0	0	96	48	4
TAP	27	48	7
TAP	27	96	6
TAP	27	144	5
STR	27	192	4
SI_	27	192	4	96	48	0
TAP	27	240	5
TAP	27	288	6
TAP	27	336	7
STR	28	0	7
SI_	28	0	7	96	48	3
TAP	28	12	6
TAP	28	24	5
TAP	28	36	4
TAP	28	48	3
TAP	28	192	6
TAP	28	240	5
TAP	28	288	1
TAP	28	288	4
TAP	29	0	3
STR	29	0	7
SI_	29	0	7	96	48	3
TAP	29	96	0
TAP	29	144	1
TAP	29	192	2
TAP	29	192	4
TAP	29	240	5
TAP	29	288	6
TAP	29	336	7
STR	30	0	0
SI_	30	0	0	96	48	6
SV_	30	0	0	96	48	3
TAP	30	0	3
TAP	30	192	5
TAP	30	240	4
TAP	30	288	3
STR	30	288	6
SLL	30	288	6	96	96	0
TAP	31	0	0
TAP	31	48	1
STR	31	96	2
SLL	31	96	2	96	96	4
TAP	31	144	2
TAP	31	192	4
TAP	31	240	5
TAP	31	288	6
TAP	31	336	7
STR	32	0	3
SCL	32	0	3	96	48	0
STR	32	0	7
SCL	32	0	7	96	48	4
TAP	32	96	3
TAP	32	96	7
TAP	32	192	1
TAP	32	192	5
TAP	32	240	1
TAP	32	240	5
BRK	32	288	3
BRK	32	288	7
STR	33	0	6
SI_	33	0	6	96	48	4
STR	33	48	1
SI_	33	48	1	96	48	7
TAP	33	96	6
TAP	33	144	1
STR	33	240	1
SI_	33	240	1	96	48	7
STR	33	240	6
SI_	33	240	6	96	48	3
TAP	33	288	7
STR	34	48	1
SI_	34	48	1	96	48	7
STR	34	48	6
SI_	34	48	6	96	48	2
TAP	34	96	7
TAP	34	240	3
TAP	34	288	1
TAP	34	288	4
STR	35	0	1
SI_	35	0	1	96	48	3
STR	35	48	6
SI_	35	48	6	96	48	0
TAP	35	96	1
TAP	35	144	6
STR	35	240	1
SI_	35	240	1	96	48	4
STR	35	240	6
SI_	35	240	6	96	48	0
TAP	35	288	0
STR	36	48	1
SI_	36	48	1	96	48	5
STR	36	48	6
SI_	36	48	6	96	48	0
TAP	36	96	0
TAP	36	240	4
TAP	36	288	2
TAP	36	288	6
STR	37	0	6
SI_	37	0	6	96	48	4
STR	37	48	1
SI_	37	48	1	96	48	7
TAP	37	96	6
TAP	37	144	1
STR	37	240	1
SI_	37	240	1	96	48	7
STR	37	240	6
SI_	37	240	6	96	48	3
TAP	37	288	3
TAP	37	288	7
STR	38	48	1
SI_	38	48	1	96	48	7
STR	38	48	6
SI_	38	48	6	96	48	2
TAP	38	96	2
TAP	38	96	7
TAP	38	240	3
TAP	38	288	1
TAP	38	288	5
STR	39	0	6
SCR	39	0	6	96	72	1
STR	39	48	0
SCR	39	48	0	96	72	3
STR	39	96	2
SCR	39	96	2	96	72	5
STR	39	144	4
SCR	39	144	4	96	72	7
STR	39	336	0
SCL	39	336	0	96	48	4
SCR	39	336	0	96	48	4
STR	40	48	0
SF_	40	48	0	96	48	4
TAP	40	144	0
BRK	40	240	1
BRK	40	240	7
STR	41	0	7
SI_	41	0	7	96	48	3
STR	41	48	3
SLR	41	48	3	96	96	7
TAP	41	96	7
TAP	41	144	1
TAP	41	192	1
TAP	41	240	2
TAP	41	288	3
TAP	41	288	6
STR	42	0	0
SI_	42	0	0	96	48	4
STR	42	48	4
SLL	42	48	4	96	96	0
TAP	42	96	0
TAP	42	144	6
TAP	42	192	6
TAP	42	240	5
TAP	42	288	1
TAP	42	288	4
STR	43	0	6
SI_	43	0	6	96	48	2
STR	43	48	2
SLR	43	48	2	96	96	0
TAP	43	96	6
TAP	43	144	1
TAP	43	192	2
TAP	43	240	3
TAP	43	288	3
TAP	43	288	7
TAP	43	304	2
TAP	43	304	6
TAP	43	320	1
TAP	43	320	5
TAP	43	336	0
TAP	43	336	4
STR	44	48	1
SLR	44	48	1	96	96	5
TAP	44	96	3
STR	44	144	5
SLR	44	144	5	96	96	1
STR	44	192	7
SI_	44	192	7	96	48	3
TAP	44	240	7
TAP	45	0	2
TAP	45	48	3
HLD	45	96	1	96
TAP	45	96	4
TAP	45	192	0
TAP	45	208	7
HLD	45	224	6	112
TAP	45	336	7
TAP	45	352	0
HLD	45	368	1	112
TAP	46	96	0
TAP	46	112	2
TAP	46	112	7
TAP	46	128	3
HLD	46	128	6	64
TAP	46	192	7
TAP	46	208	0
TAP	46	208	5
TAP	46	224	1
TAP	46	224	4
BRK	46	288	3
BRK	46	288	7
STR	47	0	6
SI_	47	0	6	96	48	2
STR	47	48	2
SLR	47	48	2	96	96	6
TAP	47	96	6
TAP	47	144	1
TAP	47	192	1
TAP	47	240	0
STR	47	288	0
SI_	47	288	0	96	48	3
TAP	47	288	7
STR	48	0	0
SI_	48	0	0	96	48	5
TAP	48	48	7
STR	48	96	0
SI_	48	96	0	96	48	4
TAP	48	144	1
STR	48	192	0
SF_	48	192	0	96	48	4
BST	49	0	2
SCL	49	0	2	96	1248	2
BST	49	0	6
SCL	49	0	6	96	1248	6
HLD	53	0	5	72
HLD	53	144	5	72
HLD	53	288	5	48
HLD	54	0	3	72
HLD	54	144	3	72
HLD	54	288	3	48
HLD	55	0	1	72
HLD	55	144	1	72
HLD	55	288	1	48
HLD	56	0	3	72
HLD	56	144	3	72
HLD	56	144	4	72
HLD	56	288	3	48
HLD	57	0	5	96
TAP	57	96	4
HLD	57	144	5	96
TAP	57	240	2
HLD	57	288	5	96
TAP	58	0	4
HLD	58	48	5	96
STR	58	144	7
SI_	58	144	7	96	48	5
STR	58	192	5
SI_	58	192	5	96	48	1
SI_	58	192	5	96	48	3
HLD	59	0	2	96
TAP	59	96	3
HLD	59	144	2	96
TAP	59	240	5
HLD	59	288	2	96
TAP	60	0	3
HLD	60	48	2	96
STR	60	144	0
SLR	60	144	0	96	96	6
STR	60	192	2
SI_	60	192	2	96	48	4
TAP	61	0	1
HLD	61	0	5	48
TAP	61	48	1
HLD	61	96	0	48
TAP	61	96	4
TAP	61	144	4
TAP	61	192	3
TAP	61	192	7
TAP	61	240	3
TAP	61	240	7
TAP	61	288	0
TAP	61	288	4
TAP	61	336	0
TAP	61	336	4
TAP	62	0	1
HLD	62	0	5	48
TAP	62	48	1
HLD	62	96	2	48
TAP	62	96	6
TAP	62	144	6
TAP	62	192	3
TAP	62	192	7
TAP	62	216	6
TAP	62	240	5
TAP	62	264	4
STR	62	288	3
SXR	62	288	3	96	288	0
STR	62	288	7
SXR	62	288	7	96	288	4
TAP	62	312	0
TAP	62	336	1
TAP	62	360	2
STR	64	0	0
SI_	64	0	0	96	48	4
STR	64	0	4
SI_	64	0	4	96	48	0
STR	64	96	0
SF_	64	96	0	96	48	4
TAP	64	96	4
BRK	64	288	2
BRK	64	288	6
STR	65	0	5
SI_	65	0	5	96	48	3
STR	65	48	3
SLR	65	48	3	96	96	7
TAP	65	96	5
TAP	65	144	0
TAP	65	192	1
STR	65	240	1
SI_	65	240	1	96	48	5
STR	65	336	1
SCR	65	336	1	96	48	4
TAP	65	336	5
TAP	66	48	0
TAP	66	48	1
TAP	66	64	7
TAP	66	80	6
TAP	66	96	5
TAP	66	192	0
TAP	66	192	7
TAP	66	240	0
TAP	66	240	7
TAP	66	288	1
STR	66	288	6
SI_	66	288	6	96	48	4
STR	67	0	6
SI_	67	0	6	96	48	2
TAP	67	48	1
TAP	67	96	6
STR	67	144	1
SI_	67	144	1	96	48	5
TAP	67	192	5
STR	67	240	1
SI_	67	240	1	96	48	3
SI_	67	240	1	96	48	7
HLD	68	48	3	96
TAP	68	48	6
TAP	68	96	5
TAP	68	144	4
TAP	68	192	3
HLD	68	192	4	96
TAP	68	240	2
STR	68	288	1
SCR	68	288	1	96	96	6
STR	69	0	6
SCL	69	0	6	96	64	1
TAP	69	96	1
STR	69	192	0
SI_	69	192	0	96	48	4
TAP	69	240	7
TAP	69	288	0
TAP	69	288	6
TAP	70	0	3
TAP	70	0	5
TAP	70	24	2
TAP	70	48	1
TAP	70	72	0
TAP	70	96	6
TAP	70	96	7
TAP	70	120	5
TAP	70	144	4
TAP	70	168	3
TAP	70	192	0
TAP	70	216	1
TAP	70	240	2
TAP	70	264	3
STR	70	288	0
SXL	70	288	0	96	288	4
STR	70	288	4
SXL	70	288	4	96	288	0
TAP	70	312	7
TAP	70	336	6
TAP	70	360	5
STR	72	0	1
SI_	72	0	1	96	48	4
STR	72	0	6
SI_	72	0	6	96	48	3
STR	72	96	1
SI_	72	96	1	96	48	7
TAP	72	96	6
STR	72	192	1
SI_	72	192	1	96	48	3
STR	72	240	5
SI_	72	240	5	96	48	1
TAP	72	288	1
TAP	72	336	5
STR	73	0	0
SF_	73	0	0	96	48	4
BRK	73	96	0
STR	73	192	1
SV_	73	192	1	96	48	3
STR	73	192	7
SI_	73	192	7	96	48	3
STR	73	288	1
SV_	73	288	1	96	48	4
STR	73	288	7
SV_	73	288	7	96	48	4
STR	74	0	1
SI_	74	0	1	96	48	5
STR	74	0	7
SV_	74	0	7	96	48	5
TAP	74	96	1
TAP	74	96	7
TAP	74	192	4
TAP	74	216	3
TAP	74	240	2
TAP	74	264	1
STR	74	288	4
SI_	74	288	4	96	48	0
TAP	74	312	5
TAP	74	336	6
TAP	74	360	7
TAP	75	0	0
TAP	75	0	4
BRK	75	96	1
BST	75	96	5
SI_	75	96	5	96	48	1
TAP	75	120	2
TAP	75	144	3
TAP	75	168	4
TAP	75	192	5
TAP	75	192	7
BRK	75	288	2
BRK	75	288	7
TAP	75	312	6
TAP	75	336	5
TAP	75	360	4
STR	76	0	0
SI_	76	0	0	96	48	4
TAP	76	0	3
STR	76	96	0
SLL	76	96	0	96	120	3
STR	76	96	4
SLL	76	96	4	96	120	7
TAP	77	0	0
TAP	77	0	6
TAP	77	16	1
TAP	77	16	5
TAP	77	32	2
TAP	77	32	4
TAP	77	48	3
BRK	77	96	0
BST	77	96	6
SLL	77	96	6	96	96	0
STR	77	192	0
SI_	77	192	0	96	48	4
TAP	77	240	1
STR	77	288	1
SLR	77	288	1	96	96	7
TAP	77	336	1
STR	78	0	7
SI_	78	0	7	96	48	3
TAP	78	48	6
TAP	78	96	5
TAP	78	144	4
STR	78	192	4
SF_	78	192	4	96	48	0
HLD	79	0	2	96
TAP	79	0	6
TAP	79	48	5
HLD	79	96	4	96
TAP	79	144	1
TAP	79	192	0
STR	79	240	0
SI_	79	240	0	96	48	2
STR	79	240	4
SI_	79	240	4	96	48	6
STR	79	336	0
SI_	79	336	0	96	48	5
STR	79	336	4
SI_	79	336	4	96	48	1
STR	80	48	0
SI_	80	48	0	96	48	4
STR	80	48	4
SI_	80	48	4	96	48	0
TAP	80	144	0
TAP	80	144	4
BRK	80	240	2
BRK	80	240	6
STR	81	0	1
SI_	81	0	1	96	48	4
STR	81	0	5
SI_	81	0	5	96	48	0
BRK	81	96	1
BRK	81	96	5
STR	81	192	7
SI_	81	192	7	96	48	3
STR	81	240	3
SCR	81	240	3	96	48	6
TAP	81	288	7
TAP	81	336	2
TAP	82	0	2
STR	82	48	1
SCR	82	48	1	96	48	4
STR	82	48	4
SI_	82	48	4	96	48	0
TAP	82	96	0
TAP	82	96	3
TAP	82	240	2
TAP	82	240	6
TAP	82	288	2
TAP	82	288	6
STR	83	0	7
SI_	83	0	7	96	48	3
STR	83	48	3
SI_	83	48	3	96	48	7
BRK	83	96	7
TAP	83	144	0
STR	83	192	1
SI_	83	192	1	96	48	5
STR	83	240	5
SI_	83	240	5	96	48	1
BRK	83	288	1
TAP	83	336	7
TAP	84	0	6
STR	84	48	1
SV_	84	48	1	96	48	3
STR	84	48	5
SV_	84	48	5	96	48	7
TAP	84	96	0
TAP	84	96	4
BRK	84	240	1
BRK	84	240	5
TAP	85	0	0
TAP	85	0	7
TAP	85	12	1
TAP	85	12	6
TAP	85	24	2
TAP	85	24	5
TAP	85	36	3
TAP	85	36	4
STR	85	96	1
SI_	85	96	1	96	48	7
TAP	85	96	6
TAP	85	192	1
STR	85	192	5
SI_	85	192	5	96	48	1
STR	85	288	3
SI_	85	288	3	96	48	5
TAP	85	288	5
TAP	86	0	3
STR	86	0	7
SI_	86	0	7	96	48	3
STR	86	96	0
SF_	86	96	0	96	48	4
TAP	86	96	7
TAP	86	192	0
TAP	86	288	2
TAP	86	288	6
HLD	87	0	4	48
TAP	87	0	5
TAP	87	48	6
TAP	87	96	0
HLD	87	96	7	48
TAP	87	144	1
TAP	87	192	2
HLD	87	192	3	48
TAP	87	240	1
TAP	87	288	0
TAP	87	336	0
STR	87	336	6
SCR	87	336	6	96	48	0
STR	88	48	3
SF_	88	48	3	96	48	7
TAP	88	48	6
TAP	88	144	3
BRK	88	240	1
BRK	88	240	5
STR	89	0	4
SI_	89	0	4	96	48	7
STR	89	48	1
SI_	89	48	1	96	48	4
TAP	89	96	4
TAP	89	144	1
STR	89	240	3
SI_	89	240	3	96	48	7
STR	89	240	6
SI_	89	240	6	96	48	3
TAP	89	288	4
TAP	89	288	7
TAP	89	336	3
TAP	89	336	6
STR	90	48	0
SI_	90	48	0	96	48	4
TAP	90	48	4
TAP	90	96	3
TAP	90	96	7
TAP	90	144	0
STR	90	144	4
SLR	90	144	4	96	96	2
TAP	90	240	3
TAP	90	288	3
STR	91	0	3
SI_	91	0	3	96	48	0
STR	91	48	6
SI_	91	48	6	96	48	3
TAP	91	96	3
TAP	91	144	6
STR	91	240	1
SI_	91	240	1	96	48	4
STR	91	240	4
SI_	91	240	4	96	48	0
TAP	91	288	0
TAP	91	288	3
TAP	91	336	1
TAP	91	336	4
STR	92	48	3
SI_	92	48	3	96	48	7
STR	92	48	7
SI_	92	48	7	96	48	3
TAP	92	96	0
TAP	92	96	4
STR	92	144	3
SLL	92	144	3	96	96	5
STR	92	144	7
SLL	92	144	7	96	96	1
STR	93	0	7
SI_	93	0	7	96	48	4
STR	93	48	2
SI_	93	48	2	96	48	7
TAP	93	96	7
TAP	93	144	2
STR	93	240	0
SI_	93	240	0	96	48	4
STR	93	240	5
SI_	93	240	5	96	48	0
TAP	93	288	4
TAP	93	288	7
TAP	93	336	0
TAP	93	336	5
STR	94	48	3
SI_	94	48	3	96	48	7
STR	94	48	7
SI_	94	48	7	96	48	3
TAP	94	96	0
TAP	94	96	4
TAP	94	144	3
TAP	94	144	7
HLD	94	240	1	0
STR	94	240	5
SXL	94	240	5	96	336	2
STR	94	288	1
SXL	94	288	1	96	288	6
HLD	94	288	5	0
BRK	95	336	0
BRK	95	336	4

T_REC_TAP	417
T_REC_BRK	29
T_REC_XTP	0
T_REC_HLD	61
T_REC_XHO	0
T_REC_STR	163
T_REC_BST	6
T_REC_XST	0
T_REC_TTP	0
T_REC_THO	0
T_REC_SLD	173
T_REC_ALL	849
T_NUM_TAP	580
T_NUM_BRK	35
T_NUM_HLD	61
T_NUM_SLD	173
T_NUM_ALL	849
T_JUDGE_TAP	615
T_JUDGE_HLD	114
T_JUDGE_SLD	173
T_JUDGE_ALL	902
TTM_EACHPAIRS	160
TTM_SCR_TAP	290000
TTM_SCR_BRK	91000
TTM_SCR_HLD	61000
TTM_SCR_SLD	259500
TTM_SCR_ALL	701500
TTM_SCR_S	677100
TTM_SCR_SS	698000
TTM_RAT_ACV	10050

