VERSION	0.00.00	1.03.00
FES_MODE	0
BPM_DEF	180.000	180.000	180.000	180.000
MET_DEF	4	4
RESOLUTION	384
CLK_DEF	384
COMPATIBLE_CODE	MA2

BPM	0	0	180.000

HLD	1	0	3	336
HLD	1	0	4	288
HLD	1	336	4	432
HLD	2	0	3	336
HLD	3	0	2	288
HLD	3	48	3	288
HLD	3	336	2	432
HLD	4	0	3	336
HLD	5	0	5	288
HLD	5	48	4	288
HLD	5	336	5	432
HLD	6	0	4	336
STR	7	0	3
SUR	7	0	3	96	288	0
STR	7	288	7
SUR	7	288	7	96	288	4
HLD	9	0	4	144
HLD	9	0	5	288
HLD	9	240	4	192
HLD	10	0	5	192
HLD	10	144	4	192
HLD	10	288	5	240
HLD	11	0	2	288
HLD	11	240	3	192
HLD	12	0	2	192
HLD	12	144	3	144
TAP	12	288	2
TAP	13	0	4
HLD	13	0	5	144
TAP	13	96	4
HLD	13	192	2	144
TAP	13	192	4
TAP	13	288	4
TAP	14	0	4
HLD	14	0	6	144
TAP	14	96	4
HLD	14	192	2	144
TAP	14	192	4
STR	14	288	4
SCR	14	288	4	96	288	3
STR	16	0	0
SCR	16	0	0	96	48	3
STR	16	0	7
SCL	16	0	7	96	48	4
TAP	16	192	2
TAP	16	192	5
BRK	16	288	0
BRK	16	288	7
TAP	17	0	3
TAP	17	0	4
HLD	17	96	2	96
HLD	17	96	6	192
TAP	17	240	2
HLD	17	288	2	144
HLD	17	336	6	96
HLD	18	96	0	384
HLD	18	96	4	528
TAP	19	144	0
HLD	19	192	0	96
TAP	19	288	5
TAP	19	336	6
STR	20	0	5
SI_	20	0	5	96	48	3
STR	20	0	7
SI_	20	0	7	96	48	1
TAP	21	0	3
TAP	21	0	4
HLD	21	48	5	144
HLD	21	96	1	192
TAP	21	240	5
HLD	21	288	5	144
HLD	21	336	1	96
HLD	22	96	3	288
HLD	22	96	7	432
HLD	23	96	4	144
HLD	23	192	5	144
STR	23	288	2
SI_	23	288	2	96	48	6
BRK	24	96	5
BRK	24	96	7
BRK	24	192	1
BRK	24	192	3
BRK	24	288	2
BRK	24	288	6
TAP	25	0	3
TAP	25	0	4
HLD	25	48	2	144
HLD	25	96	6	192
TAP	25	240	2
HLD	25	288	2	144
HLD	25	336	6	96
HLD	26	96	0	384
HLD	26	96	4	528
TAP	27	144	0
HLD	27	192	0	96
TAP	27	288	4
TAP	27	336	5
STR	28	0	5
SI_	28	0	5	96	48	3
STR	28	0	6
SI_	28	0	6	96	48	0
HLD	29	0	3	144
TAP	29	0	4
HLD	29	96	5	144
HLD	29	192	1	144
HLD	29	288	7	144
STR	30	0	0
SI_	30	0	0	96	48	3
SI_	30	0	0	96	48	5
TAP	31	0	5
TAP	31	48	5
TAP	31	96	0
TAP	31	144	0
TAP	31	192	7
TAP	31	240	7
TAP	31	288	2
TAP	31	336	2
STR	32	0	1
SI_	32	0	1	96	48	4
STR	32	0	3
SI_	32	0	3	96	48	6
TAP	32	192	0
TAP	32	192	7
BRK	32	288	1
BRK	32	288	6
TAP	33	0	2
TAP	33	48	2
TAP	33	96	3
STR	33	144	1
SI_	33	144	1	96	48	4
TAP	33	144	4
STR	33	336	6
SI_	33	336	6	96	48	2
SI_	33	336	6	96	48	4
TAP	34	144	3
TAP	34	240	1
TAP	34	240	4
TAP	34	288	1
TAP	34	288	4
TAP	35	0	7
TAP	35	48	7
TAP	35	96	0
TAP	35	144	1
STR	35	144	6
SI_	35	144	6	96	48	3
STR	35	336	1
SI_	35	336	1	96	48	3
SI_	35	336	1	96	48	5
TAP	36	144	4
TAP	36	240	2
TAP	36	240	6
TAP	36	288	2
TAP	36	288	6
TAP	37	0	1
TAP	37	48	1
TAP	37	96	0
STR	37	144	2
SI_	37	144	2	96	48	7
TAP	37	144	7
STR	37	336	5
SI_	37	336	5	96	48	1
SI_	37	336	5	96	48	7
TAP	38	144	0
TAP	38	240	1
TAP	38	240	6
TAP	38	288	1
TAP	38	288	6
TAP	39	0	0
STR	39	48	0
SCR	39	48	0	96	144	5
TAP	39	144	5
HLD	39	336	6	48
HLD	39	336	7	48
HLD	40	48	0	48
HLD	40	48	5	48
HLD	40	144	1	48
HLD	40	144	4	48
BRK	40	240	2
BRK	40	240	3
HLD	41	0	2	336
HLD	41	0	5	144
HLD	41	192	3	144
HLD	42	0	1	144
HLD	42	0	5	336
HLD	42	192	4	144
HLD	43	0	2	288
HLD	43	0	6	144
HLD	43	192	3	96
HLD	43	336	2	528
STR	43	336	3
SSR	43	336	3	96	240	7
HLD	45	0	3	288
HLD	45	192	4	288
HLD	46	0	5	288
HLD	46	192	4	96
HLD	47	0	1	96
HLD	47	0	3	288
HLD	47	192	4	288
HLD	48	0	6	288
HLD	48	192	5	192
BST	49	0	7
SCR	49	0	7	96	1056	5
SUL	49	0	7	96	1056	5
HLD	53	0	3	336
HLD	53	0	4	288
HLD	53	336	4	384
HLD	54	0	3	288
HLD	54	336	2	384
HLD	55	0	3	288
HLD	55	336	4	384
HLD	56	0	3	336
HLD	57	0	4	144
HLD	57	0	5	288
HLD	57	240	4	192
HLD	58	0	5	192
HLD	58	144	4	192
HLD	58	288	5	240
HLD	59	0	1	288
HLD	59	240	3	192
HLD	60	0	1	192
HLD	60	144	3	144
TAP	61	0	1
TAP	61	48	1
TAP	61	96	3
TAP	61	144	3
TAP	61	192	2
TAP	61	240	2
TAP	61	288	5
TAP	61	336	5
TAP	62	0	4
TAP	62	48	4
TAP	62	96	6
TAP	62	144	6
TAP	62	192	0
HLD	62	240	0	144
STR	62	288	7
SCL	62	288	7	96	288	0
TAP	62	336	7
STR	64	0	3
SCL	64	0	3	96	48	0
STR	64	0	7
SCL	64	0	7	96	48	4
TAP	64	192	2
TAP	64	192	6
BRK	64	288	0
BRK	64	288	4
HLD	65	0	1	240
HLD	65	0	3	96
HLD	65	144	5	288
TAP	65	288	1
HLD	65	336	1	96
HLD	66	96	3	144
HLD	66	96	7	336
HLD	66	288	4	288
HLD	67	96	6	96
HLD	67	240	2	96
HLD	67	240	4	192
HLD	68	48	5	48
HLD	68	96	4	48
HLD	68	144	3	48
HLD	68	192	2	48
HLD	68	240	3	144
HLD	68	288	4	96
HLD	69	48	1	144
HLD	69	96	5	288
TAP	69	240	1
STR	69	288	1
SSR	69	288	1	96	288	5
STR	70	288	7
SCR	70	288	7	96	288	5
HLD	72	0	2	192
HLD	72	96	6	192
TAP	72	240	2
HLD	72	288	2	192
TAP	72	336	6
HLD	73	0	6	288
TAP	73	144	3
HLD	73	192	4	288
TAP	73	336	7
HLD	74	0	0	336
TAP	74	144	3
HLD	74	192	2	144
HLD	75	0	4	96
HLD	75	0	6	288
TAP	75	144	3
HLD	75	192	2	240
TAP	75	336	7
HLD	76	0	0	96
STR	76	96	4
SI_	76	96	4	96	48	1
SI_	76	96	4	96	48	7
TAP	77	0	0
TAP	77	0	7
HLD	77	48	1	192
BRK	77	96	5
HLD	77	240	5	240
TAP	77	288	1
HLD	77	336	1	96
STR	78	96	3
SCL	78	96	3	96	144	5
HLD	78	144	7	240
TAP	79	48	7
HLD	79	96	7	192
HLD	79	144	3	240
HLD	79	336	0	144
HLD	80	48	2	144
HLD	80	144	4	240
HLD	80	240	0	144
HLD	81	96	2	192
BRK	81	96	6
TAP	81	192	1
TAP	81	240	1
HLD	81	288	3	192
TAP	82	0	2
TAP	82	48	2
HLD	82	96	4	288
TAP	82	192	3
TAP	82	240	3
HLD	82	288	5	144
HLD	83	48	1	192
HLD	83	96	7	144
HLD	83	288	0	96
HLD	83	288	6	96
TAP	84	48	1
TAP	84	48	5
TAP	84	96	2
TAP	84	96	4
TAP	84	144	3
BRK	84	240	2
BRK	84	240	6
STR	85	0	7
SI_	85	0	7	96	480	3
TAP	85	96	0
TAP	85	192	6
TAP	85	288	1
TAP	86	0	5
TAP	86	96	2
TAP	86	192	4
TAP	86	288	2
TAP	86	288	5
TAP	87	0	6
TAP	87	48	6
TAP	87	96	4
TAP	87	144	4
TAP	87	192	3
TAP	87	240	3
TAP	87	288	1
STR	87	336	1
SCR	87	336	1	96	48	4
STR	87	336	5
SCR	87	336	5	96	48	0
STR	88	144	1
SI_	88	144	1	96	48	5
TAP	88	144	5
BRK	88	240	7
TAP	89	0	6
TAP	89	48	6
TAP	89	96	7
STR	89	144	0
SI_	89	144	0	96	48	4
SCR	89	144	0	96	48	3
TAP	89	144	5
STR	89	336	5
SI_	89	336	5	96	48	1
SCR	89	336	5	96	48	0
TAP	90	144	2
TAP	90	144	3
TAP	90	240	1
TAP	90	240	4
TAP	90	288	1
TAP	90	288	4
TAP	91	0	3
TAP	91	48	3
TAP	91	96	4
STR	91	144	2
SI_	91	144	2	96	48	6
SCL	91	144	2	96	48	7
TAP	91	144	5
STR	91	336	5
SI_	91	336	5	96	48	1
SCL	91	336	5	96	48	2
TAP	92	144	0
TAP	92	144	7
TAP	92	240	1
TAP	92	240	6
TAP	92	288	1
TAP	92	288	6
TAP	93	0	5
TAP	93	48	5
TAP	93	96	4
TAP	93	144	3
STR	93	144	6
SI_	93	144	6	96	48	2
SCL	93	144	6	96	48	3
STR	93	336	1
SI_	93	336	1	96	48	5
SCL	93	336	1	96	48	6
TAP	94	144	3
TAP	94	144	4
TAP	94	240	1
TAP	94	240	5
STR	94	288	1
SLR	94	288	1	96	288	6
STR	94	288	5
SLR	94	288	5	96	288	2
BRK	95	336	0
BRK	95	336	4

T_REC_TAP	149
T_REC_BRK	21
T_REC_XTP	0
T_REC_HLD	143
T_REC_XHO	0
T_REC_STR	40
T_REC_BST	1
T_REC_XST	0
T_REC_TTP	0
T_REC_THO	0
T_REC_SLD	53
T_REC_ALL	407
T_NUM_TAP	189
T_NUM_BRK	22
T_NUM_HLD	143
T_NUM_SLD	53
T_NUM_ALL	407
T_JUDGE_TAP	211
T_JUDGE_HLD	623
T_JUDGE_SLD	53
T_JUDGE_ALL	887
TTM_EACHPAIRS	74
TTM_SCR_TAP	94500
TTM_SCR_BRK	57200
TTM_SCR_HLD	143000
TTM_SCR_SLD	79500
TTM_SCR_ALL	374200
TTM_SCR_S	360850
TTM_SCR_SS	372000
TTM_RAT_ACV	10059

