VERSION	0.00.00	1.03.00
FES_MODE	0
BPM_DEF	180.000	180.000	180.000	180.000
MET_DEF	4	4
RESOLUTION	384
CLK_DEF	384
COMPATIBLE_CODE	MA2

BPM	0	0	180.000

HLD	1	0	1	384
HLD	2	0	2	384
HLD	3	0	3	384
TAP	4	0	4
HLD	5	0	6	384
HLD	6	0	5	384
HLD	7	0	4	384
BRK	8	0	3
HLD	9	0	2	192
HLD	9	192	3	192
HLD	10	0	4	192
TAP	10	192	5
HLD	11	0	5	192
HLD	11	192	4	192
HLD	12	0	3	192
TAP	12	192	2
HLD	13	0	4	192
TAP	13	0	5
TAP	13	192	6
TAP	14	0	2
HLD	14	0	3	192
TAP	14	192	1
STR	15	0	0
SCR	15	0	0	96	192	3
STR	15	0	7
SCL	15	0	7	96	192	4
HLD	16	0	3	96
HLD	16	0	4	96
TAP	16	192	3
TAP	16	192	4
TAP	16	288	2
TAP	16	288	5
TAP	17	0	2
TAP	17	96	3
TAP	17	192	4
TAP	17	192	5
HLD	17	288	4	192
HLD	17	288	5	192
TAP	19	0	5
TAP	19	96	4
TAP	19	192	2
TAP	19	192	3
HLD	19	288	2	192
HLD	19	288	3	192
TAP	21	0	1
TAP	21	96	2
TAP	21	192	3
TAP	21	192	5
HLD	21	288	3	192
HLD	21	288	5	192
TAP	23	0	4
TAP	23	96	3
TAP	23	192	2
HLD	23	288	0	96
HLD	23	288	1	96
TAP	24	96	0
TAP	24	96	7
TAP	24	192	0
TAP	24	192	7
TAP	24	288	0
TAP	24	288	7
TAP	25	0	6
TAP	25	96	7
TAP	25	192	0
TAP	25	192	6
HLD	25	288	0	192
HLD	25	288	6	192
TAP	27	0	1
TAP	27	96	0
TAP	27	192	1
TAP	27	192	7
HLD	27	288	1	192
HLD	27	288	7	192
TAP	29	0	5
TAP	29	96	6
TAP	29	192	0
TAP	29	192	7
HLD	29	288	1	192
HLD	29	288	6	192
TAP	31	0	0
TAP	31	96	7
TAP	31	192	6
HLD	31	288	4	96
HLD	31	288	5	96
TAP	32	96	3
TAP	32	96	4
TAP	32	192	2
TAP	32	192	5
TAP	33	0	5
TAP	33	48	5
HLD	33	144	2	96
HLD	33	144	3	96
HLD	33	336	4	96
HLD	33	336	5	96
TAP	34	144	6
TAP	34	240	0
TAP	34	288	0
TAP	35	0	7
TAP	35	48	7
HLD	35	144	4	96
HLD	35	144	6	96
HLD	35	336	1	96
HLD	35	336	3	96
TAP	36	144	0
TAP	36	240	0
TAP	36	240	7
TAP	36	288	0
TAP	36	288	7
TAP	37	0	6
TAP	37	48	6
HLD	37	144	0	96
HLD	37	144	1	96
HLD	37	336	6	96
HLD	37	336	7	96
TAP	38	144	0
TAP	38	240	7
TAP	38	288	7
TAP	39	0	6
TAP	39	48	6
TAP	39	144	4
TAP	39	144	5
TAP	39	240	3
TAP	39	240	4
STR	39	336	2
SI_	39	336	2	96	192	6
STR	39	336	3
SI_	39	336	3	96	192	7
TAP	41	0	6
STR	41	96	5
SI_	41	96	5	96	120	1
TAP	42	0	0
STR	42	96	1
SI_	42	96	1	96	120	5
TAP	43	0	6
STR	43	96	7
SI_	43	96	7	96	120	3
TAP	44	0	0
TAP	44	96	1
TAP	44	192	2
TAP	44	192	4
TAP	44	288	3
TAP	44	288	5
STR	45	0	4
SI_	45	0	4	96	144	0
STR	45	0	6
SI_	45	0	6	96	144	2
STR	46	0	1
SI_	46	0	1	96	144	5
STR	46	0	3
SI_	46	0	3	96	144	7
TAP	47	0	7
TAP	47	96	6
TAP	47	192	3
TAP	47	192	5
TAP	47	288	2
TAP	47	288	4
TAP	48	0	2
TAP	48	96	0
TAP	48	96	1
TAP	48	192	0
TAP	48	192	7
TAP	48	288	6
TAP	48	288	7
BRK	49	0	0
BRK	49	0	5
TAP	53	0	4
TAP	53	0	5
TAP	54	0	2
TAP	54	0	3
STR	55	0	3
SI_	55	0	3	96	480	0
STR	55	0	4
SI_	55	0	4	96	480	7
HLD	57	0	0	192
HLD	57	192	1	192
HLD	58	0	2	192
TAP	58	192	3
HLD	59	0	4	192
HLD	59	192	5	192
HLD	60	0	6	192
TAP	60	192	7
TAP	61	0	6
TAP	61	96	7
TAP	61	192	0
TAP	61	192	5
TAP	62	0	1
TAP	62	96	0
TAP	62	192	2
TAP	62	192	7
STR	63	0	0
SCR	63	0	0	96	192	3
STR	63	0	7
SCL	63	0	7	96	192	4
HLD	64	0	3	96
HLD	64	0	4	96
TAP	64	192	3
TAP	64	192	4
TAP	64	288	2
TAP	64	288	5
TAP	65	0	5
TAP	65	96	6
TAP	65	96	7
TAP	65	144	6
TAP	65	144	7
TAP	65	240	0
TAP	65	240	5
TAP	65	336	6
TAP	65	336	7
TAP	66	48	5
TAP	66	96	5
TAP	66	192	4
TAP	66	288	3
TAP	66	288	5
TAP	67	0	2
TAP	67	96	0
TAP	67	96	1
TAP	67	144	0
TAP	67	144	1
TAP	67	240	2
TAP	67	240	7
TAP	67	336	0
TAP	67	336	1
TAP	68	48	2
TAP	68	96	2
TAP	68	192	3
TAP	68	288	2
TAP	68	288	4
HLD	69	0	5	96
HLD	69	96	7	96
TAP	69	192	6
TAP	70	0	7
TAP	70	96	6
TAP	70	192	5
TAP	70	288	4
STR	71	0	3
SI_	71	0	3	96	192	0
SI_	71	0	3	96	192	6
TAP	72	0	6
TAP	72	0	7
TAP	72	96	0
TAP	72	96	5
BRK	72	192	1
BRK	72	192	4
TAP	73	0	1
TAP	73	96	0
TAP	73	96	2
TAP	73	192	3
TAP	73	192	7
TAP	73	288	0
TAP	73	288	2
TAP	74	0	1
TAP	74	96	2
TAP	74	96	7
TAP	74	192	0
TAP	74	192	1
TAP	75	0	6
BRK	75	96	0
BRK	75	96	4
TAP	75	192	1
BRK	75	288	3
BRK	75	288	7
TAP	76	0	7
TAP	76	96	6
TAP	76	96	7
BRK	76	192	0
BRK	76	192	5
TAP	77	0	6
TAP	77	0	7
TAP	77	96	0
TAP	77	96	5
TAP	77	192	6
TAP	77	288	5
TAP	77	288	7
TAP	78	0	0
TAP	78	0	4
TAP	78	96	5
TAP	78	96	7
TAP	78	192	6
TAP	79	0	0
TAP	79	0	1
TAP	79	96	1
TAP	79	96	2
TAP	79	192	2
TAP	79	192	3
TAP	79	288	3
TAP	79	288	4
TAP	79	336	3
TAP	79	336	4
TAP	80	48	4
TAP	80	48	6
TAP	80	144	1
TAP	80	144	3
TAP	80	240	0
TAP	80	240	7
TAP	81	0	5
TAP	81	96	4
TAP	81	96	6
TAP	81	192	3
TAP	81	192	7
TAP	81	288	4
TAP	81	288	6
TAP	82	0	3
TAP	82	0	7
TAP	82	96	0
TAP	82	96	2
TAP	82	144	0
TAP	82	144	2
TAP	82	240	1
TAP	82	288	1
HLD	83	0	6	96
TAP	83	96	7
HLD	83	192	1	96
TAP	83	288	0
TAP	84	0	7
TAP	84	48	7
TAP	84	96	0
TAP	84	144	0
BRK	84	240	1
BRK	84	240	6
TAP	85	0	2
TAP	85	0	3
TAP	85	96	1
TAP	85	96	4
TAP	85	192	0
TAP	85	192	5
TAP	85	288	1
TAP	85	288	4
TAP	86	0	0
TAP	86	0	5
TAP	86	96	6
TAP	86	96	7
TAP	86	192	0
TAP	86	192	5
TAP	86	288	1
TAP	86	288	4
TAP	87	0	2
TAP	87	96	3
TAP	87	192	4
TAP	87	288	5
TAP	87	336	5
TAP	88	48	4
TAP	88	48	6
TAP	88	144	1
TAP	88	144	3
TAP	88	240	0
TAP	88	240	7
TAP	89	0	7
TAP	89	48	7
HLD	89	144	4	96
HLD	89	144	5	96
HLD	89	336	3	96
HLD	89	336	4	96
TAP	90	144	1
TAP	90	240	6
TAP	90	288	6
TAP	91	0	0
TAP	91	48	0
HLD	91	144	1	96
HLD	91	144	3	96
HLD	91	336	3	96
HLD	91	336	5	96
TAP	92	144	7
TAP	92	240	0
TAP	92	240	1
TAP	92	288	0
TAP	92	288	1
TAP	93	0	6
TAP	93	48	6
HLD	93	144	4	96
HLD	93	144	7	96
HLD	93	336	1	96
HLD	93	336	4	96
TAP	94	144	2
TAP	94	144	3
TAP	94	240	1
TAP	94	240	4
TAP	94	288	1
TAP	94	288	4
STR	95	0	0
SI_	95	0	0	96	144	4
TAP	95	0	5
BRK	95	336	2
BRK	95	336	6

T_REC_TAP	265
T_REC_BRK	15
T_REC_XTP	0
T_REC_HLD	68
T_REC_XHO	0
T_REC_STR	17
T_REC_BST	0
T_REC_XST	0
T_REC_TTP	0
T_REC_THO	0
T_REC_SLD	18
T_REC_ALL	383
T_NUM_TAP	282
T_NUM_BRK	15
T_NUM_HLD	68
T_NUM_SLD	18
T_NUM_ALL	383
T_JUDGE_TAP	297
T_JUDGE_HLD	224
T_JUDGE_SLD	18
T_JUDGE_ALL	539
TTM_EACHPAIRS	121
TTM_SCR_TAP	141000
TTM_SCR_BRK	39000
TTM_SCR_HLD	68000
TTM_SCR_SLD	27000
TTM_SCR_ALL	275000
TTM_SCR_S	265300
TTM_SCR_SS	273500
TTM_RAT_ACV	10054

