VERSION	0.00.00	1.03.00
FES_MODE	0
BPM_DEF	180.000	180.000	180.000	180.000
MET_DEF	4	4
RESOLUTION	384
CLK_DEF	384
COMPATIBLE_CODE	MA2

BPM	0	0	180.000

HLD	1	0	0	384
TAP	2	192	1
HLD	3	0	2	384
TAP	4	192	3
HLD	5	0	4	384
TAP	6	192	5
HLD	7	0	6	384
TAP	8	192	7
STR	9	0	7
SI_	9	0	7	96	288	3
TAP	10	192	1
STR	11	0	1
SI_	11	0	1	96	288	4
TAP	12	192	6
STR	13	0	6
SI_	13	0	6	96	288	3
TAP	14	192	0
HLD	15	0	0	384
HLD	15	0	7	384
TAP	17	0	2
TAP	17	192	2
TAP	18	0	2
TAP	18	0	3
TAP	18	96	2
TAP	18	96	3
TAP	18	192	2
TAP	18	192	3
TAP	19	0	4
TAP	19	192	4
TAP	20	0	4
TAP	20	0	5
TAP	20	96	4
TAP	20	96	5
TAP	20	192	4
TAP	20	192	5
TAP	21	0	6
TAP	21	192	6
TAP	22	0	6
TAP	22	0	7
TAP	22	96	6
TAP	22	96	7
TAP	22	192	6
TAP	22	192	7
TAP	23	0	0
TAP	23	192	0
TAP	24	0	0
TAP	24	0	1
TAP	24	96	0
TAP	24	96	1
BRK	24	192	0
BRK	24	192	1
TAP	25	0	7
TAP	25	192	7
TAP	26	0	6
TAP	26	0	7
TAP	26	96	6
TAP	26	96	7
TAP	26	192	0
TAP	26	192	5
TAP	27	0	5
TAP	27	192	5
TAP	28	0	3
TAP	28	0	4
TAP	28	96	3
TAP	28	96	4
TAP	28	192	2
TAP	28	192	5
TAP	29	0	3
TAP	29	192	3
TAP	30	0	2
TAP	30	0	3
TAP	30	96	2
TAP	30	96	3
TAP	30	192	1
TAP	30	192	4
TAP	31	0	1
TAP	31	192	1
TAP	32	0	0
TAP	32	0	7
TAP	32	96	0
TAP	32	96	7
TAP	32	192	1
TAP	32	192	6
STR	33	0	0
SI_	33	0	0	96	288	4
TAP	34	192	6
STR	35	0	6
SI_	35	0	6	96	288	2
TAP	36	192	1
STR	37	0	1
SI_	37	0	1	96	288	5
TAP	38	192	7
STR	39	0	7
SI_	39	0	7	96	288	3
TAP	40	192	0
TAP	40	192	7
TAP	41	0	0
TAP	41	192	0
TAP	42	0	1
TAP	42	96	1
TAP	42	192	1
TAP	43	0	2
TAP	43	192	2
TAP	44	0	3
TAP	44	96	4
TAP	44	192	3
HLD	45	0	4	192
HLD	45	0	5	192
HLD	46	0	4	192
HLD	46	0	5	192
TAP	47	0	5
TAP	47	96	5
TAP	47	192	5
TAP	48	0	6
TAP	48	96	6
TAP	48	192	6
STR	49	0	7
SCL	49	0	7	96	288	4
STR	51	0	3
SCL	51	0	3	96	288	0
STR	53	0	6
SCR	53	0	6	96	288	1
STR	55	0	2
SCR	55	0	2	96	288	5
HLD	57	0	6	384
TAP	58	192	5
HLD	59	0	4	384
TAP	60	192	3
TAP	61	0	2
TAP	61	96	2
TAP	61	192	2
TAP	61	288	2
TAP	62	0	1
TAP	62	96	1
TAP	62	192	1
TAP	62	288	1
HLD	63	0	0	288
HLD	63	0	7	288
BRK	64	0	1
BRK	64	0	6
TAP	65	0	0
TAP	65	96	0
TAP	65	192	0
TAP	65	192	7
TAP	66	0	1
TAP	66	48	1
TAP	66	96	1
TAP	66	192	0
TAP	66	192	1
TAP	67	0	2
TAP	67	96	2
TAP	67	192	2
TAP	67	192	3
TAP	68	0	3
TAP	68	48	3
TAP	68	96	3
TAP	68	192	3
TAP	68	192	4
TAP	69	0	5
TAP	69	96	5
TAP	69	192	4
TAP	69	192	5
TAP	70	0	6
TAP	70	0	7
TAP	70	192	6
TAP	70	192	7
STR	71	0	6
SI_	71	0	6	96	288	3
STR	71	0	7
SI_	71	0	7	96	288	2
TAP	73	0	7
TAP	73	96	7
TAP	73	192	0
TAP	73	192	7
TAP	74	0	6
TAP	74	48	6
TAP	74	96	6
TAP	74	192	6
TAP	74	192	7
TAP	75	0	5
TAP	75	96	5
TAP	75	192	4
TAP	75	192	5
TAP	76	0	4
TAP	76	48	4
TAP	76	96	4
TAP	76	192	3
TAP	76	192	4
TAP	77	0	2
TAP	77	96	2
TAP	77	192	2
TAP	77	192	3
TAP	78	0	1
TAP	78	48	1
TAP	78	96	1
TAP	78	192	0
TAP	78	192	1
TAP	79	0	7
TAP	79	96	7
TAP	79	192	0
TAP	79	288	0
TAP	80	0	0
TAP	80	0	7
TAP	80	96	0
TAP	80	96	7
BRK	80	192	1
BRK	80	192	6
TAP	81	0	0
TAP	81	96	0
TAP	81	192	1
TAP	81	288	1
TAP	82	0	2
TAP	82	48	2
TAP	82	96	2
TAP	82	192	1
TAP	82	192	3
TAP	83	0	4
TAP	83	96	4
TAP	83	192	5
TAP	83	288	5
TAP	84	0	6
TAP	84	48	6
TAP	84	96	6
TAP	84	192	5
TAP	84	192	7
TAP	85	0	7
TAP	85	96	7
TAP	85	192	6
TAP	85	288	6
TAP	86	0	5
TAP	86	96	5
TAP	86	192	4
TAP	86	288	4
TAP	87	0	3
TAP	87	96	3
TAP	87	192	2
TAP	87	288	2
TAP	88	0	1
TAP	88	96	1
BRK	88	192	0
BRK	88	192	7
HLD	89	0	0	192
HLD	89	0	1	192
HLD	90	0	2	192
HLD	90	0	3	192
HLD	91	0	4	192
HLD	91	0	5	192
HLD	92	0	6	192
HLD	92	0	7	192
TAP	93	0	0
TAP	93	96	1
TAP	93	192	2
TAP	93	288	3
TAP	94	0	4
TAP	94	96	5
TAP	94	192	6
TAP	94	288	7
HLD	95	0	0	192
STR	95	288	0
SI_	95	288	0	96	384	3

T_REC_TAP	201
T_REC_BRK	8
T_REC_XTP	0
T_REC_HLD	23
T_REC_XHO	0
T_REC_STR	14
T_REC_BST	0
T_REC_XST	0
T_REC_TTP	0
T_REC_THO	0
T_REC_SLD	14
T_REC_ALL	260
T_NUM_TAP	215
T_NUM_BRK	8
T_NUM_HLD	23
T_NUM_SLD	14
T_NUM_ALL	260
T_JUDGE_TAP	223
T_JUDGE_HLD	128
T_JUDGE_SLD	14
T_JUDGE_ALL	365
TTM_EACHPAIRS	54
TTM_SCR_TAP	107500
TTM_SCR_BRK	20800
TTM_SCR_HLD	23000
TTM_SCR_SLD	21000
TTM_SCR_ALL	172300
TTM_SCR_S	166400
TTM_SCR_SS	171500
TTM_RAT_ACV	10046

