VERSION	0.00.00	1.03.00
FES_MODE	0
BPM_DEF	154.000	154.000	154.000	154.000
MET_DEF	4	4
RESOLUTION	384
CLK_DEF	384
COMPATIBLE_CODE	MA2

BPM	0	0	154.000

HLD	2	0	7	336
BRK	2	336	0
TAP	3	240	3
TAP	3	264	4
TAP	3	288	2
TAP	4	0	2
TAP	4	0	3
TAP	4	48	2
TAP	4	72	3
TAP	4	120	2
TAP	4	120	3
TAP	4	168	1
TAP	4	168	4
TAP	4	216	2
TAP	4	240	2
TAP	4	288	3
TAP	4	336	2
TAP	4	336	4
HLD	5	0	2	96
TAP	5	48	7
HLD	5	96	4	96
TAP	5	144	0
HLD	5	192	3	96
TAP	5	240	7
TAP	5	288	5
TAP	5	336	0
TAP	6	0	6
TAP	6	24	7
TAP	6	48	6
TAP	6	72	7
TAP	6	120	6
TAP	6	120	7
TAP	6	168	0
TAP	6	168	5
TAP	6	216	6
TAP	6	240	6
TAP	6	288	7
TAP	6	336	0
TAP	6	336	6
TAP	7	0	0
TAP	7	24	7
TAP	7	72	0
TAP	7	96	7
TAP	7	144	3
TAP	7	168	4
TAP	7	216	3
TAP	7	240	4
TAP	7	288	0
TAP	7	288	7
TAP	7	336	1
TAP	7	336	6
TAP	8	0	4
TAP	8	0	5
TAP	8	48	5
TAP	8	72	4
TAP	8	120	4
TAP	8	120	5
TAP	8	168	3
TAP	8	168	6
TAP	8	216	5
TAP	8	240	5
TAP	8	288	4
TAP	8	336	3
TAP	8	336	5
HLD	9	0	5	96
TAP	9	48	0
HLD	9	96	3	96
TAP	9	144	7
HLD	9	192	4	96
TAP	9	240	0
TAP	9	288	2
TAP	9	336	7
TAP	10	0	1
TAP	10	24	0
TAP	10	48	1
TAP	10	72	0
TAP	10	120	0
TAP	10	120	1
TAP	10	168	2
TAP	10	168	7
TAP	10	216	1
TAP	10	240	1
TAP	10	288	0
TAP	10	336	1
TAP	10	336	7
TAP	11	0	0
TAP	11	0	6
TAP	11	24	0
TAP	11	24	6
TAP	11	72	3
TAP	11	72	7
TAP	11	96	3
TAP	11	96	7
TAP	11	144	1
TAP	11	144	5
TAP	11	168	1
TAP	11	168	5
TAP	11	216	1
TAP	11	240	2
TAP	11	264	3
TAP	11	288	4
TAP	11	312	5
TAP	11	336	6
TAP	11	360	7
HLD	12	0	0	288
TAP	12	0	4
TAP	12	96	4
STR	12	192	4
SI_	12	192	4	96	48	0
TAP	12	288	4
TAP	12	336	1
TAP	13	0	0
HLD	13	0	2	288
TAP	13	96	0
STR	13	192	0
SI_	13	192	0	96	48	5
TAP	13	288	0
TAP	13	336	1
TAP	14	0	5
HLD	14	0	7	288
TAP	14	96	5
STR	14	192	5
SCL	14	192	5	96	48	2
TAP	14	288	5
TAP	14	336	0
TAP	15	0	0
TAP	15	96	1
TAP	15	96	7
TAP	15	192	1
TAP	15	216	7
TAP	15	240	2
TAP	15	264	6
TAP	15	288	3
TAP	15	312	5
TAP	15	336	4
TAP	16	0	3
HLD	16	0	7	288
TAP	16	96	3
STR	16	192	3
SI_	16	192	3	96	48	7
TAP	16	288	3
TAP	16	336	6
HLD	17	0	5	288
TAP	17	0	7
TAP	17	96	7
STR	17	192	7
SCR	17	192	7	96	48	2
TAP	17	288	7
TAP	17	336	6
HLD	18	0	3	96
HLD	18	0	7	96
HLD	18	192	3	48
HLD	18	192	7	48
HLD	18	264	2	48
HLD	18	264	6	48
TAP	18	336	1
TAP	18	336	5
HLD	19	0	0	48
HLD	19	0	4	48
HLD	19	72	1	48
HLD	19	72	5	48
TAP	19	144	2
TAP	19	144	6
TAP	19	192	3
TAP	19	192	7
TAP	19	216	0
TAP	19	240	1
TAP	19	264	2
TAP	19	288	3
TAP	19	312	4
TAP	19	336	5
TAP	19	360	6
HLD	20	0	7	96
TAP	20	48	2
HLD	20	96	1	96
TAP	20	144	6
HLD	20	192	5	96
TAP	20	240	0
TAP	20	288	1
TAP	20	336	7
HLD	21	0	2	96
TAP	21	48	4
HLD	21	96	5	96
TAP	21	144	0
HLD	21	192	1	96
TAP	21	240	6
TAP	21	288	7
TAP	21	336	2
TAP	22	0	3
STR	22	0	7
SUL	22	0	7	96	48	3
TAP	22	48	2
TAP	22	96	1
TAP	22	144	0
TAP	22	192	3
STR	22	192	7
SUR	22	192	7	96	48	3
TAP	22	240	4
TAP	22	288	5
TAP	22	336	6
STR	23	0	0
SCL	23	0	0	96	48	5
TAP	23	0	4
TAP	23	48	3
TAP	23	96	2
TAP	23	144	1
STR	23	192	0
SCR	23	192	0	96	48	3
TAP	23	192	4
TAP	23	240	5
TAP	23	288	6
TAP	23	336	7
HLD	24	0	7	96
TAP	24	96	6
HLD	24	144	6	96
TAP	24	240	5
TAP	24	288	5
STR	24	336	4
SCL	24	336	4	96	48	0
TAP	25	48	7
TAP	25	96	7
TAP	25	192	6
TAP	25	192	7
TAP	25	240	6
TAP	25	240	7
TAP	25	288	0
TAP	25	288	5
TAP	25	336	1
TAP	25	336	4
STR	26	0	2
SI_	26	0	2	96	48	7
STR	26	0	3
SI_	26	0	3	96	48	7
HLD	26	192	2	48
HLD	26	192	6	48
HLD	26	264	0	48
HLD	26	264	4	48
TAP	26	336	3
TAP	26	336	7
HLD	27	0	0	48
HLD	27	0	4	48
HLD	27	72	2	48
HLD	27	72	6	48
TAP	27	144	0
TAP	27	144	4
STR	27	192	3
SCL	27	192	3	96	48	0
STR	27	192	7
SCL	27	192	7	96	48	4
STR	28	0	0
SI_	28	0	0	96	48	4
TAP	28	96	0
TAP	28	96	6
STR	28	144	6
SI_	28	144	6	96	48	2
TAP	28	240	3
TAP	28	240	6
STR	28	288	3
SI_	28	288	3	96	48	7
TAP	29	0	3
TAP	29	0	5
STR	29	48	5
SI_	29	48	5	96	48	1
TAP	29	144	0
TAP	29	144	5
BRK	29	192	0
BRK	29	288	2
BRK	29	288	6
STR	30	0	7
SI_	30	0	7	96	48	3
TAP	30	96	1
TAP	30	96	7
STR	30	144	1
SI_	30	144	1	96	48	5
TAP	30	240	1
TAP	30	240	4
STR	30	288	4
SI_	30	288	4	96	48	0
TAP	31	0	2
TAP	31	0	4
STR	31	48	2
SI_	31	48	2	96	48	6
TAP	31	144	2
TAP	31	144	7
BRK	31	192	7
BRK	31	288	1
BRK	31	288	5
STR	32	0	3
SCL	32	0	3	96	48	0
TAP	32	48	4
TAP	32	96	5
STR	32	144	6
SCL	32	144	6	96	48	3
TAP	32	192	7
TAP	32	240	0
STR	32	288	1
SCL	32	288	1	96	48	6
TAP	32	336	2
TAP	33	0	3
STR	33	48	4
SCL	33	48	4	96	48	1
TAP	33	96	5
TAP	33	144	6
BRK	33	192	7
BRK	33	288	1
BRK	33	288	5
STR	34	0	4
SCR	34	0	4	96	48	7
TAP	34	48	3
TAP	34	96	2
STR	34	144	1
SCR	34	144	1	96	48	4
TAP	34	192	0
TAP	34	240	7
STR	34	288	6
SCR	34	288	6	96	48	1
TAP	34	336	5
TAP	35	0	4
STR	35	48	3
SCR	35	48	3	96	48	6
TAP	35	96	2
TAP	35	144	1
STR	35	192	0
SF_	35	192	0	96	48	4
TAP	35	288	0
TAP	36	240	0
TAP	36	240	7
BRK	36	288	1
BRK	36	288	6
TAP	37	0	1
TAP	37	0	3
TAP	37	48	2
TAP	37	96	4
TAP	37	96	6
TAP	37	144	5
STR	37	192	1
SI_	37	192	1	96	48	4
STR	37	240	4
SI_	37	240	4	96	48	7
STR	37	288	7
SCR	37	288	7	96	96	4
HLD	37	336	6	144
STR	38	192	1
SI_	38	192	1	96	48	4
STR	38	192	7
SI_	38	192	7	96	48	4
BRK	38	288	1
BRK	38	288	7
TAP	39	0	5
TAP	39	0	7
TAP	39	48	6
TAP	39	96	0
TAP	39	96	2
TAP	39	144	1
STR	39	192	7
SCL	39	192	7	96	48	4
STR	39	240	4
SCL	39	240	4	96	48	1
STR	39	288	1
SUL	39	288	1	96	96	7
HLD	39	336	0	144
HLD	40	192	0	48
HLD	40	240	2	48
HLD	40	288	4	48
HLD	40	336	6	48
STR	41	0	0
SI_	41	0	0	96	48	4
BRK	41	96	0
HLD	41	192	7	48
HLD	41	240	5	48
HLD	41	288	3	48
HLD	41	336	1	48
STR	42	0	7
SI_	42	0	7	96	48	4
SCL	42	0	7	96	48	4
STR	42	96	7
SI_	42	96	7	96	48	2
SCR	42	96	7	96	48	2
STR	42	192	7
SF_	42	192	7	96	48	3
TAP	42	288	7
HLD	43	0	1	96
TAP	43	48	0
TAP	43	96	7
HLD	43	144	6	96
TAP	43	192	5
STR	43	240	4
SXL	43	240	4	96	144	0
SXR	43	240	4	96	144	0
TAP	43	288	4
TAP	43	336	4
TAP	44	192	5
TAP	44	216	4
TAP	44	240	5
TAP	44	288	2
TAP	44	312	3
TAP	44	336	2
TAP	45	0	4
TAP	45	0	6
TAP	45	48	5
TAP	45	96	1
TAP	45	96	3
TAP	45	144	2
STR	45	192	6
SI_	45	192	6	96	48	3
STR	45	240	3
SI_	45	240	3	96	48	0
STR	45	288	0
SCL	45	288	0	96	96	3
HLD	45	336	1	144
STR	46	192	0
SI_	46	192	0	96	48	3
STR	46	192	6
SI_	46	192	6	96	48	3
BRK	46	288	0
BRK	46	288	6
TAP	47	0	0
TAP	47	0	2
TAP	47	48	1
TAP	47	96	5
TAP	47	96	7
TAP	47	144	6
STR	47	192	0
SCR	47	192	0	96	48	3
STR	47	240	3
SCR	47	240	3	96	48	6
STR	47	288	6
SUR	47	288	6	96	96	0
HLD	47	336	7	144
TAP	48	192	0
TAP	48	192	6
TAP	48	240	1
TAP	48	288	2
TAP	48	288	4
TAP	48	336	5
STR	49	0	2
SI_	49	0	2	96	48	7
STR	49	0	6
SI_	49	0	6	96	48	3
BRK	49	96	2
BRK	49	96	6
STR	49	192	0
SI_	49	192	0	96	48	4
TAP	49	240	0
STR	49	288	7
SI_	49	288	7	96	48	3
TAP	49	336	7
STR	50	0	2
SI_	50	0	2	96	48	7
TAP	50	48	2
STR	50	96	5
SI_	50	96	5	96	48	0
TAP	50	144	5
STR	50	192	3
SCL	50	192	3	96	72	6
TAP	50	240	3
STR	50	288	4
SXL	50	288	4	96	192	4
SXR	50	288	4	96	192	4
TAP	50	336	4
TAP	51	288	1
TAP	51	288	6
TAP	52	0	1
TAP	52	24	0
TAP	52	48	1
TAP	52	96	6
TAP	52	120	7
TAP	52	144	6
TAP	52	192	2
TAP	52	216	3
TAP	52	240	2
TAP	52	288	5
TAP	52	312	4
TAP	52	336	5
STR	53	0	0
SI_	53	0	0	96	48	4
TAP	53	96	0
TAP	53	96	6
STR	53	144	6
SI_	53	144	6	96	48	2
TAP	53	240	4
TAP	53	240	6
STR	53	288	4
SI_	53	288	4	96	48	0
TAP	54	0	2
TAP	54	0	4
STR	54	48	2
SI_	54	48	2	96	48	6
TAP	54	144	0
TAP	54	144	2
BRK	54	192	0
BRK	54	288	1
BRK	54	288	5
STR	55	0	7
SI_	55	0	7	96	48	3
TAP	55	96	1
TAP	55	96	7
STR	55	144	1
SI_	55	144	1	96	48	5
TAP	55	240	1
TAP	55	240	3
STR	55	288	3
SI_	55	288	3	96	48	7
TAP	56	0	3
TAP	56	0	5
STR	56	48	5
SI_	56	48	5	96	48	1
TAP	56	144	5
TAP	56	144	7
BRK	56	192	7
BRK	56	288	2
BRK	56	288	6
STR	57	0	0
SI_	57	0	0	96	48	4
TAP	57	48	7
TAP	57	96	6
STR	57	144	5
SI_	57	144	5	96	48	1
TAP	57	192	4
TAP	57	240	3
STR	57	288	2
SI_	57	288	2	96	48	6
TAP	57	336	1
TAP	58	0	0
STR	58	48	7
SI_	58	48	7	96	48	3
TAP	58	96	6
TAP	58	144	5
BRK	58	192	4
BRK	58	288	2
BRK	58	288	6
STR	59	0	7
SI_	59	0	7	96	48	3
TAP	59	48	0
TAP	59	96	1
STR	59	144	2
SI_	59	144	2	96	48	6
TAP	59	192	3
TAP	59	240	4
STR	59	288	5
SI_	59	288	5	96	48	1
TAP	59	336	6
TAP	60	0	7
STR	60	48	0
SI_	60	48	0	96	48	4
TAP	60	96	1
TAP	60	144	2
STR	60	192	3
SF_	60	192	3	96	48	7
TAP	60	288	3
TAP	61	240	0
TAP	61	240	7
TAP	61	288	1
TAP	61	288	6
HLD	62	0	4	48
HLD	62	96	4	48
HLD	62	192	3	48
HLD	62	288	3	48
TAP	63	0	3
HLD	63	0	4	48
HLD	63	96	3	48
TAP	63	96	4
TAP	63	192	3
HLD	63	192	4	48
HLD	63	288	3	48
TAP	63	288	4
HLD	64	0	3	0
HLD	64	0	4	48
HLD	64	96	2	48
HLD	64	96	3	0
HLD	64	192	3	0
HLD	64	192	5	48
HLD	64	288	1	48
HLD	64	288	3	0
HLD	65	0	3	0
HLD	65	0	6	48
HLD	65	96	0	48
HLD	65	96	4	0
TAP	65	192	1
TAP	65	192	5
TAP	65	240	2
TAP	65	240	6
TAP	65	288	3
TAP	65	288	7
TAP	65	336	0
TAP	65	336	4
STR	66	0	1
SI_	66	0	1	96	48	6
STR	66	0	5
SI_	66	0	5	96	48	2
TAP	66	192	3
TAP	66	192	7
TAP	66	240	2
TAP	66	240	6
TAP	66	288	1
TAP	66	288	5
TAP	66	336	0
TAP	66	336	4
STR	67	0	3
SUR	67	0	3	96	48	7
STR	67	0	7
SUR	67	0	7	96	48	3
STR	67	96	3
SCL	67	96	3	96	48	0
STR	67	96	7
SCL	67	96	7	96	48	4
STR	67	192	3
SI_	67	192	3	96	48	6
STR	67	192	7
SI_	67	192	7	96	48	2
TAP	67	288	3
TAP	67	288	7
BRK	68	0	3
BRK	68	0	7
TAP	69	0	0
TAP	69	24	7
HLD	69	48	0	48
TAP	69	96	6
TAP	69	120	1
HLD	69	144	6	48
TAP	69	192	2
TAP	69	216	5
HLD	69	240	2	48
TAP	69	288	4
TAP	69	312	3
TAP	69	336	4
TAP	70	0	0
TAP	70	0	2
TAP	70	48	1
TAP	70	96	5
TAP	70	96	7
TAP	70	144	6
STR	70	192	2
SI_	70	192	2	96	48	7
STR	70	240	7
SI_	70	240	7	96	48	4
STR	70	288	4
SCL	70	288	4	96	96	7
HLD	70	336	5	144
STR	71	192	2
SI_	71	192	2	96	48	7
STR	71	192	4
SI_	71	192	4	96	48	7
BRK	71	288	2
BRK	71	288	4
TAP	72	0	4
TAP	72	0	6
TAP	72	48	5
TAP	72	96	1
TAP	72	96	3
TAP	72	144	2
STR	72	192	4
SCR	72	192	4	96	48	7
STR	72	240	7
SCR	72	240	7	96	48	2
STR	72	288	2
SUR	72	288	2	96	96	4
HLD	72	336	3	144
TAP	73	192	1
TAP	73	192	7
TAP	73	240	6
TAP	73	288	3
TAP	73	288	5
TAP	73	336	2
STR	74	0	1
SI_	74	0	1	96	48	4
STR	74	0	5
SI_	74	0	5	96	48	0
BRK	74	96	1
BRK	74	96	5
STR	74	192	7
SI_	74	192	7	96	48	3
TAP	74	240	7
STR	74	288	0
SI_	74	288	0	96	48	4
TAP	74	336	0
STR	75	0	5
SI_	75	0	5	96	48	0
TAP	75	48	5
STR	75	96	2
SI_	75	96	2	96	48	7
TAP	75	144	2
STR	75	192	4
SCR	75	192	4	96	72	1
TAP	75	240	4
STR	75	288	3
SXL	75	288	3	96	192	3
SXR	75	288	3	96	192	3
TAP	75	336	3
TAP	76	288	1
TAP	76	288	6
TAP	77	0	6
TAP	77	24	7
HLD	77	48	6	48
TAP	77	96	1
TAP	77	120	0
HLD	77	144	1	48
TAP	77	192	5
TAP	77	216	4
HLD	77	240	5	48
TAP	77	288	2
TAP	77	312	3
TAP	77	336	2
TAP	78	0	4
TAP	78	0	5
TAP	78	48	5
TAP	78	72	4
TAP	78	120	4
TAP	78	120	5
TAP	78	168	3
TAP	78	168	6
TAP	78	216	5
TAP	78	240	5
TAP	78	288	4
TAP	78	336	3
TAP	78	336	5
HLD	79	0	5	96
BRK	79	48	0
HLD	79	96	3	96
BRK	79	144	7
HLD	79	192	4	96
BRK	79	240	0
TAP	79	288	2
BRK	79	336	7
TAP	80	0	1
TAP	80	24	0
TAP	80	48	1
TAP	80	72	0
TAP	80	120	0
TAP	80	120	1
TAP	80	168	2
TAP	80	168	7
TAP	80	216	1
TAP	80	240	1
TAP	80	288	0
TAP	80	336	1
TAP	80	336	7
BRK	81	0	7
TAP	81	24	0
BRK	81	72	7
TAP	81	96	0
BRK	81	144	4
TAP	81	168	3
BRK	81	216	4
TAP	81	240	3
BRK	81	288	0
BRK	81	288	7
BRK	81	336	1
BRK	81	336	6
TAP	82	0	2
TAP	82	0	3
TAP	82	48	2
TAP	82	72	3
TAP	82	120	2
TAP	82	120	3
TAP	82	168	1
TAP	82	168	4
TAP	82	216	2
TAP	82	240	2
TAP	82	288	3
TAP	82	336	2
TAP	82	336	4
HLD	83	0	2	96
BRK	83	48	7
HLD	83	96	4	96
BRK	83	144	0
HLD	83	192	3	96
BRK	83	240	7
TAP	83	288	5
BRK	83	336	0
TAP	84	0	6
TAP	84	24	7
TAP	84	48	6
TAP	84	72	7
TAP	84	120	6
TAP	84	120	7
TAP	84	168	0
TAP	84	168	5
TAP	84	216	6
TAP	84	240	6
TAP	84	288	7
TAP	84	336	0
TAP	84	336	6
BRK	85	0	1
BRK	85	0	7
TAP	85	24	1
TAP	85	24	7
BRK	85	72	0
BRK	85	72	4
TAP	85	96	0
TAP	85	96	4
BRK	85	144	2
BRK	85	144	6
TAP	85	168	2
TAP	85	168	6
TAP	85	216	4
TAP	85	240	3
TAP	85	264	2
STR	85	288	1
SI_	85	288	1	96	48	5
TAP	85	312	0
TAP	85	336	7
TAP	85	360	6
BRK	86	0	1
BRK	86	0	5

T_REC_TAP	452
T_REC_BRK	58
T_REC_XTP	0
T_REC_HLD	86
T_REC_XHO	0
T_REC_STR	102
T_REC_BST	0
T_REC_XST	0
T_REC_TTP	0
T_REC_THO	0
T_REC_SLD	107
T_REC_ALL	805
T_NUM_TAP	554
T_NUM_BRK	58
T_NUM_HLD	86
T_NUM_SLD	107
T_NUM_ALL	805
T_JUDGE_TAP	612
T_JUDGE_HLD	153
T_JUDGE_SLD	107
T_JUDGE_ALL	872
TTM_EACHPAIRS	153
TTM_SCR_TAP	277000
TTM_SCR_BRK	150800
TTM_SCR_HLD	86000
TTM_SCR_SLD	160500
TTM_SCR_ALL	674300
TTM_SCR_S	648450
TTM_SCR_SS	668500
TTM_RAT_ACV	10086

