VERSION	0.00.00	1.03.00
FES_MODE	0
BPM_DEF	154.000	154.000	154.000	154.000
MET_DEF	4	4
RESOLUTION	384
CLK_DEF	384
COMPATIBLE_CODE	MA2

BPM	0	0	154.000

HLD	2	0	7	336
BRK	2	336	0
TAP	3	240	0
TAP	3	240	7
BRK	3	288	1
BRK	3	288	6
TAP	4	0	2
TAP	4	48	4
TAP	4	96	3
TAP	4	144	5
TAP	4	192	4
TAP	4	192	5
TAP	4	288	3
TAP	4	288	4
HLD	5	0	2	72
HLD	5	72	3	72
HLD	5	144	4	72
TAP	5	216	5
TAP	5	288	3
TAP	5	288	6
TAP	6	0	5
TAP	6	48	3
TAP	6	96	4
TAP	6	144	2
TAP	6	192	2
TAP	6	192	3
TAP	6	288	3
TAP	6	288	4
HLD	7	0	5	72
HLD	7	72	4	72
HLD	7	144	3	72
TAP	7	216	2
TAP	7	288	1
TAP	7	288	4
TAP	8	0	2
TAP	8	48	4
TAP	8	96	3
TAP	8	144	5
TAP	8	192	4
TAP	8	192	5
TAP	8	288	3
TAP	8	288	4
HLD	9	0	2	72
HLD	9	72	3	72
HLD	9	144	4	72
TAP	9	216	5
TAP	9	288	3
TAP	9	288	6
TAP	10	0	5
TAP	10	48	3
TAP	10	96	4
TAP	10	144	2
TAP	10	192	2
TAP	10	192	3
TAP	10	288	4
TAP	10	288	5
HLD	11	0	3	72
TAP	11	72	4
BST	11	144	2
SI_	11	144	2	96	48	0
BST	11	144	5
SI_	11	144	5	96	48	7
HLD	12	0	2	288
TAP	12	96	4
TAP	12	192	3
TAP	12	288	5
HLD	13	0	6	288
TAP	13	96	3
TAP	13	192	5
STR	13	288	2
SCR	13	288	2	96	96	5
TAP	14	192	6
TAP	14	240	6
TAP	14	288	4
TAP	15	0	1
TAP	15	48	1
TAP	15	96	3
TAP	15	192	3
TAP	15	192	4
TAP	15	288	2
TAP	15	288	5
HLD	16	0	1	288
TAP	16	96	0
TAP	16	192	7
TAP	16	288	6
HLD	17	0	5	288
TAP	17	96	4
TAP	17	192	3
TAP	17	288	2
HLD	18	0	1	96
TAP	18	96	0
HLD	18	192	6	96
TAP	18	288	7
STR	19	0	0
SI_	19	0	0	96	96	3
STR	19	0	7
SI_	19	0	7	96	96	4
BRK	19	288	2
BRK	19	288	5
HLD	20	0	6	288
TAP	20	96	3
TAP	20	192	4
TAP	20	288	2
HLD	21	0	1	288
TAP	21	96	4
TAP	21	192	3
STR	21	288	6
SCR	21	288	6	96	96	1
TAP	22	192	0
TAP	22	240	0
TAP	22	288	1
TAP	23	0	7
TAP	23	48	7
TAP	23	96	6
TAP	23	192	4
TAP	23	192	5
TAP	23	288	0
TAP	23	288	1
HLD	24	0	6	96
TAP	24	96	7
HLD	24	192	1	96
TAP	24	288	0
TAP	25	0	0
TAP	25	0	7
TAP	25	96	1
TAP	25	96	6
TAP	25	192	2
TAP	25	192	5
TAP	25	288	3
TAP	25	288	4
HLD	26	0	5	96
TAP	26	96	7
HLD	26	192	2	96
TAP	26	288	0
STR	27	0	3
SI_	27	0	3	96	96	0
STR	27	0	4
SI_	27	0	4	96	96	7
BRK	27	288	1
BRK	27	288	6
HLD	28	0	4	96
HLD	28	0	5	96
TAP	28	144	4
TAP	28	144	5
TAP	28	240	2
TAP	28	240	3
HLD	28	288	2	96
HLD	28	288	3	96
TAP	29	48	2
TAP	29	48	3
TAP	29	144	4
TAP	29	144	5
TAP	29	192	4
HLD	29	192	5	96
TAP	29	288	1
HLD	30	0	0	96
HLD	30	0	1	96
TAP	30	144	0
TAP	30	144	1
TAP	30	240	6
TAP	30	240	7
HLD	30	288	6	96
HLD	30	288	7	96
TAP	31	48	6
TAP	31	48	7
TAP	31	144	0
TAP	31	144	1
TAP	31	192	0
HLD	31	192	1	96
TAP	31	288	5
HLD	32	0	4	96
HLD	32	0	5	96
TAP	32	144	4
TAP	32	144	5
TAP	32	240	0
TAP	32	240	1
HLD	32	288	0	96
HLD	32	288	1	96
TAP	33	48	0
TAP	33	48	1
TAP	33	144	4
TAP	33	144	5
TAP	33	192	4
HLD	33	192	5	96
TAP	33	288	0
HLD	34	0	2	96
HLD	34	0	3	96
TAP	34	144	2
TAP	34	144	3
TAP	34	240	6
TAP	34	240	7
HLD	34	288	6	96
HLD	34	288	7	96
TAP	35	48	6
STR	35	48	7
SF_	35	48	7	96	144	3
HLD	36	0	3	192
HLD	36	0	4	192
TAP	36	240	3
TAP	36	240	4
BRK	36	288	2
BRK	36	288	5
TAP	37	0	3
TAP	37	0	4
TAP	37	96	0
TAP	37	96	2
TAP	37	192	6
TAP	37	192	7
TAP	37	240	6
TAP	37	240	7
TAP	37	336	1
TAP	37	336	4
TAP	38	48	7
TAP	38	96	7
TAP	38	192	4
TAP	38	192	6
TAP	38	288	1
TAP	38	288	3
TAP	39	0	3
TAP	39	0	4
TAP	39	96	5
TAP	39	96	7
TAP	39	192	0
TAP	39	192	1
TAP	39	240	0
TAP	39	240	1
TAP	39	336	3
TAP	39	336	6
TAP	40	48	0
TAP	40	96	0
TAP	40	192	2
TAP	40	192	5
TAP	40	240	2
TAP	40	240	5
STR	40	288	3
SI_	40	288	3	96	72	0
TAP	40	288	4
BRK	41	0	7
TAP	41	192	2
TAP	41	192	5
TAP	41	240	2
TAP	41	240	5
TAP	41	288	3
STR	41	288	4
SI_	41	288	4	96	72	7
BRK	42	0	0
STR	42	96	1
SI_	42	96	1	96	72	4
BRK	42	192	0
STR	42	288	5
SXL	42	288	5	96	216	0
BRK	43	0	0
TAP	43	288	1
TAP	43	288	7
HLD	43	336	1	96
HLD	43	336	7	96
TAP	44	144	3
TAP	44	144	4
TAP	44	192	3
TAP	44	192	4
BRK	44	288	1
BRK	44	288	6
TAP	45	0	3
TAP	45	0	4
TAP	45	96	0
TAP	45	96	2
TAP	45	192	6
TAP	45	192	7
TAP	45	240	6
TAP	45	240	7
TAP	45	336	1
TAP	45	336	4
TAP	46	48	7
TAP	46	96	7
TAP	46	192	5
TAP	46	192	7
TAP	46	288	0
TAP	46	288	2
TAP	47	0	3
TAP	47	0	4
TAP	47	96	5
TAP	47	96	7
TAP	47	192	0
TAP	47	192	1
TAP	47	240	0
TAP	47	240	1
TAP	47	336	3
TAP	47	336	6
TAP	48	48	0
TAP	48	96	0
TAP	48	192	2
TAP	48	192	5
TAP	48	240	2
TAP	48	240	5
TAP	48	288	3
STR	48	288	4
SI_	48	288	4	96	72	7
BRK	49	0	0
TAP	49	192	2
TAP	49	192	5
TAP	49	240	2
TAP	49	240	5
STR	49	288	3
SI_	49	288	3	96	72	0
TAP	49	288	4
BRK	50	0	7
STR	50	96	6
SI_	50	96	6	96	72	3
BRK	50	192	7
STR	50	288	2
SCL	50	288	2	96	192	5
TAP	50	336	2
TAP	51	288	1
TAP	51	288	6
HLD	51	336	1	96
HLD	51	336	6	96
TAP	52	144	3
TAP	52	144	4
TAP	52	192	3
TAP	52	192	4
BRK	52	288	1
BRK	52	288	6
HLD	53	0	2	96
HLD	53	0	3	96
TAP	53	144	2
TAP	53	144	3
TAP	53	240	6
TAP	53	240	7
HLD	53	288	6	96
HLD	53	288	7	96
TAP	54	48	6
TAP	54	48	7
TAP	54	144	2
TAP	54	144	3
HLD	54	192	2	96
TAP	54	192	3
TAP	54	288	7
HLD	55	0	4	96
HLD	55	0	5	96
TAP	55	144	4
TAP	55	144	5
TAP	55	240	0
TAP	55	240	1
HLD	55	288	0	96
HLD	55	288	1	96
TAP	56	48	0
TAP	56	48	1
TAP	56	144	4
TAP	56	144	5
TAP	56	192	4
HLD	56	192	5	96
TAP	56	288	0
HLD	57	0	2	96
HLD	57	0	4	96
TAP	57	144	2
TAP	57	144	4
TAP	57	240	0
TAP	57	240	6
HLD	57	288	0	96
HLD	57	288	6	96
TAP	58	48	0
TAP	58	48	6
TAP	58	144	2
TAP	58	144	4
HLD	58	192	2	96
TAP	58	192	4
TAP	58	288	0
HLD	59	0	3	96
HLD	59	0	5	96
TAP	59	144	3
TAP	59	144	5
TAP	59	240	1
TAP	59	240	7
HLD	59	288	1	96
HLD	59	288	7	96
TAP	60	48	1
STR	60	48	7
SF_	60	48	7	96	144	3
HLD	61	0	3	192
HLD	61	0	4	192
BRK	61	288	2
BRK	61	288	5
TAP	62	0	2
TAP	62	0	3
TAP	62	96	2
TAP	62	96	4
TAP	62	192	2
TAP	62	192	5
TAP	62	240	5
TAP	62	288	2
TAP	62	288	5
TAP	63	0	2
TAP	63	0	5
TAP	63	96	2
TAP	63	96	4
TAP	63	192	2
TAP	63	192	3
TAP	63	240	3
TAP	63	288	2
TAP	63	288	3
TAP	64	0	2
TAP	64	0	4
TAP	64	96	2
TAP	64	96	5
TAP	64	192	2
TAP	64	192	6
TAP	64	240	6
TAP	64	288	2
TAP	64	288	6
TAP	65	0	2
TAP	65	0	5
TAP	65	96	2
TAP	65	96	6
TAP	65	192	7
TAP	65	240	7
TAP	65	288	0
BRK	66	0	1
BRK	66	0	6
TAP	66	192	3
TAP	66	240	3
TAP	66	288	4
TAP	67	0	4
TAP	67	0	5
TAP	67	96	2
TAP	67	96	3
TAP	67	192	4
TAP	67	192	6
TAP	67	288	1
TAP	67	288	3
BRK	68	0	1
BRK	68	0	6
TAP	69	0	3
TAP	69	0	4
TAP	69	48	3
TAP	69	48	4
TAP	69	96	2
TAP	69	96	5
TAP	69	192	3
TAP	69	216	4
TAP	69	240	3
TAP	69	288	2
TAP	69	288	5
TAP	70	0	0
TAP	70	0	7
TAP	70	96	4
TAP	70	96	6
TAP	70	192	2
TAP	70	192	3
TAP	70	240	2
TAP	70	240	3
TAP	70	336	0
TAP	70	336	5
TAP	71	48	7
TAP	71	96	7
TAP	71	192	5
TAP	71	192	7
TAP	71	288	0
TAP	71	288	2
TAP	72	0	0
TAP	72	0	7
TAP	72	96	1
TAP	72	96	3
TAP	72	192	4
TAP	72	192	5
TAP	72	240	4
TAP	72	240	5
TAP	72	336	2
TAP	72	336	7
TAP	73	48	0
TAP	73	96	0
TAP	73	192	1
TAP	73	192	4
TAP	73	240	1
TAP	73	240	4
STR	73	288	2
SI_	73	288	2	96	72	7
TAP	73	288	3
BRK	74	0	4
TAP	74	192	3
TAP	74	192	6
TAP	74	240	3
TAP	74	240	6
TAP	74	288	4
STR	74	288	5
SI_	74	288	5	96	72	0
BRK	75	0	3
STR	75	96	1
SI_	75	96	1	96	72	4
BRK	75	192	7
STR	75	288	6
SCL	75	288	6	96	192	1
TAP	75	336	6
TAP	76	288	2
TAP	76	288	5
HLD	76	336	2	96
HLD	76	336	5	96
TAP	77	144	0
TAP	77	144	7
TAP	77	192	0
TAP	77	192	7
BRK	77	288	1
BRK	77	288	6
TAP	78	0	6
TAP	78	48	0
TAP	78	96	7
TAP	78	144	1
TAP	78	192	0
TAP	78	192	1
TAP	78	288	3
TAP	78	288	4
HLD	79	0	5	72
HLD	79	72	7	72
HLD	79	144	0	72
TAP	79	216	2
TAP	79	288	2
TAP	79	288	3
TAP	80	0	1
TAP	80	48	7
TAP	80	96	0
TAP	80	144	6
TAP	80	192	6
TAP	80	192	7
TAP	80	288	3
TAP	80	288	4
HLD	81	0	2	72
HLD	81	72	0	72
HLD	81	144	7	72
TAP	81	216	5
TAP	81	288	4
TAP	81	288	5
TAP	82	0	6
TAP	82	48	0
TAP	82	96	7
TAP	82	144	1
TAP	82	192	0
TAP	82	192	1
TAP	82	288	3
TAP	82	288	4
HLD	83	0	5	72
HLD	83	72	7	72
HLD	83	144	0	72
TAP	83	216	2
TAP	83	288	2
TAP	83	288	3
TAP	84	0	1
TAP	84	48	7
TAP	84	96	0
TAP	84	144	6
TAP	84	192	6
TAP	84	192	7
TAP	84	288	2
TAP	84	288	5
HLD	85	0	4	72
TAP	85	72	3
BST	85	144	2
SI_	85	144	2	96	48	0
BST	85	144	5
SI_	85	144	5	96	48	7
BRK	86	0	1
BRK	86	0	6

T_REC_TAP	398
T_REC_BRK	33
T_REC_XTP	0
T_REC_HLD	81
T_REC_XHO	0
T_REC_STR	20
T_REC_BST	4
T_REC_XST	0
T_REC_TTP	0
T_REC_THO	0
T_REC_SLD	24
T_REC_ALL	560
T_NUM_TAP	418
T_NUM_BRK	37
T_NUM_HLD	81
T_NUM_SLD	24
T_NUM_ALL	560
T_JUDGE_TAP	455
T_JUDGE_HLD	199
T_JUDGE_SLD	24
T_JUDGE_ALL	678
TTM_EACHPAIRS	189
TTM_SCR_TAP	209000
TTM_SCR_BRK	96200
TTM_SCR_HLD	81000
TTM_SCR_SLD	36000
TTM_SCR_ALL	422200
TTM_SCR_S	405950
TTM_SCR_SS	418500
TTM_RAT_ACV	10088

