VERSION	0.00.00	1.03.00
FES_MODE	0
BPM_DEF	154.000	154.000	154.000	154.000
MET_DEF	4	4
RESOLUTION	384
CLK_DEF	384
COMPATIBLE_CODE	MA2

BPM	0	0	154.000

TAP	4	0	1
TAP	4	96	0
TAP	4	96	1
TAP	4	192	6
TAP	4	288	6
TAP	4	288	7
TAP	5	0	5
TAP	5	96	4
TAP	5	192	3
TAP	5	192	5
TAP	6	0	6
TAP	6	96	6
TAP	6	96	7
TAP	6	192	1
TAP	6	288	0
TAP	6	288	1
HLD	7	0	6	96
TAP	7	96	7
TAP	7	192	0
TAP	7	192	5
TAP	8	0	6
TAP	8	96	6
TAP	8	96	7
TAP	8	192	1
TAP	8	288	0
TAP	8	288	1
TAP	9	0	2
TAP	9	96	3
TAP	9	192	2
TAP	9	192	4
TAP	10	0	1
TAP	10	96	0
TAP	10	96	1
TAP	10	192	6
TAP	10	288	6
TAP	10	288	7
HLD	11	0	0	96
TAP	11	96	7
BRK	11	192	1
BRK	11	192	6
TAP	12	0	1
TAP	12	96	2
TAP	12	192	2
TAP	12	192	3
TAP	13	0	6
TAP	13	96	5
TAP	13	192	4
TAP	13	192	5
TAP	14	0	1
TAP	14	96	2
TAP	14	192	3
TAP	14	288	4
STR	15	0	5
SI_	15	0	5	96	144	1
TAP	16	0	1
TAP	16	96	2
TAP	16	192	3
TAP	16	192	4
TAP	17	0	6
TAP	17	96	5
TAP	17	192	3
TAP	17	192	4
TAP	18	0	2
TAP	18	96	2
TAP	18	192	1
TAP	18	192	3
TAP	19	0	5
TAP	19	96	5
TAP	19	192	4
TAP	19	192	6
TAP	20	0	6
TAP	20	96	5
TAP	20	192	4
TAP	20	192	5
TAP	21	0	1
TAP	21	96	2
TAP	21	192	3
TAP	21	288	2
TAP	21	288	3
TAP	22	0	1
TAP	22	0	4
TAP	22	192	3
TAP	22	288	2
STR	23	0	1
SI_	23	0	1	96	144	5
TAP	24	0	7
TAP	24	96	6
TAP	24	192	4
TAP	24	192	5
TAP	25	0	0
TAP	25	96	1
TAP	25	192	2
TAP	25	192	3
TAP	26	0	5
TAP	26	96	5
TAP	26	192	4
TAP	26	192	6
TAP	27	0	2
TAP	27	96	2
BRK	27	192	1
BRK	27	192	3
HLD	28	0	1	192
HLD	28	192	2	192
HLD	29	0	3	192
TAP	29	192	4
TAP	29	288	4
HLD	30	0	5	192
STR	30	192	4
SI_	30	192	4	96	192	0
TAP	31	192	7
TAP	31	288	7
HLD	32	0	6	192
HLD	32	192	5	192
HLD	33	0	4	192
TAP	33	192	3
TAP	33	288	3
HLD	34	0	2	192
STR	34	192	3
SI_	34	192	3	96	192	7
TAP	35	192	0
TAP	35	288	0
STR	36	0	0
SI_	36	0	0	96	192	3
SI_	36	0	0	96	192	5
TAP	37	0	5
TAP	37	96	4
TAP	37	96	6
TAP	37	192	7
TAP	37	288	0
TAP	37	288	6
TAP	38	0	0
TAP	38	0	6
TAP	38	192	0
TAP	38	288	1
TAP	38	288	7
TAP	39	0	6
TAP	39	96	5
TAP	39	192	4
STR	39	288	3
SI_	39	288	3	96	192	7
TAP	40	288	6
TAP	40	288	7
TAP	41	0	0
TAP	41	0	5
TAP	41	192	1
TAP	41	288	0
TAP	41	288	1
TAP	42	0	2
TAP	42	0	7
TAP	42	192	4
TAP	42	288	3
TAP	42	288	4
HLD	43	0	2	96
HLD	43	0	3	96
HLD	43	192	4	96
HLD	43	192	5	96
TAP	44	0	3
TAP	44	0	6
TAP	44	192	4
TAP	44	288	3
TAP	45	0	2
TAP	45	96	1
TAP	45	96	3
TAP	45	192	0
TAP	45	288	1
TAP	45	288	7
TAP	46	0	1
TAP	46	0	7
TAP	46	192	7
TAP	46	288	0
TAP	46	288	6
TAP	47	0	1
TAP	47	96	2
TAP	47	192	3
STR	47	288	4
SI_	47	288	4	96	192	0
TAP	48	288	0
TAP	48	288	1
TAP	49	0	2
TAP	49	0	7
TAP	49	192	6
TAP	49	288	6
TAP	49	288	7
TAP	50	0	0
TAP	50	0	5
TAP	50	192	3
TAP	50	288	3
TAP	50	288	4
TAP	51	0	2
STR	51	0	5
SCR	51	0	5	96	480	2
TAP	52	288	3
TAP	52	288	4
HLD	53	0	2	192
TAP	53	0	5
HLD	53	192	3	192
HLD	54	0	4	192
TAP	54	192	5
TAP	54	288	5
HLD	55	0	6	192
STR	55	192	5
SI_	55	192	5	96	192	1
TAP	56	192	7
TAP	56	288	6
HLD	57	0	5	192
HLD	57	192	4	192
HLD	58	0	3	192
TAP	58	192	2
TAP	58	288	2
HLD	59	0	1	192
STR	59	192	2
SI_	59	192	2	96	192	6
TAP	60	192	0
TAP	60	288	0
STR	61	0	0
SI_	61	0	0	96	192	3
SI_	61	0	0	96	192	5
TAP	62	0	2
TAP	62	192	3
TAP	62	192	4
TAP	63	0	5
TAP	63	192	3
TAP	63	192	4
TAP	64	0	2
TAP	64	192	3
TAP	64	192	4
TAP	65	0	4
TAP	65	0	5
TAP	65	192	4
TAP	65	288	4
TAP	66	0	2
TAP	66	192	3
TAP	66	288	3
TAP	67	0	5
TAP	67	192	4
TAP	67	288	4
STR	68	0	2
SCL	68	0	2	96	480	5
BRK	70	0	4
BRK	70	0	5
TAP	70	96	3
TAP	70	96	6
TAP	70	192	7
TAP	70	288	0
TAP	70	288	6
TAP	71	0	0
TAP	71	0	6
TAP	71	192	0
TAP	71	192	1
TAP	71	288	2
TAP	71	288	7
TAP	72	0	6
TAP	72	96	5
TAP	72	192	4
STR	72	288	2
SI_	72	288	2	96	192	7
STR	72	288	3
SI_	72	288	3	96	192	6
TAP	73	288	6
TAP	73	288	7
TAP	74	0	0
TAP	74	0	5
TAP	74	192	1
TAP	74	288	0
TAP	74	288	1
TAP	75	0	2
TAP	75	0	7
TAP	75	192	4
TAP	75	288	3
TAP	75	288	4
STR	76	0	3
SCL	76	0	3	96	480	4
TAP	76	0	4
TAP	78	0	6
TAP	78	96	6
TAP	78	96	7
TAP	78	192	1
TAP	78	288	0
TAP	78	288	1
TAP	79	0	2
TAP	79	96	3
TAP	79	96	4
TAP	79	192	2
TAP	79	192	5
TAP	80	0	1
TAP	80	96	0
TAP	80	96	1
TAP	80	192	6
TAP	80	288	6
TAP	80	288	7
HLD	81	0	0	96
HLD	81	0	1	96
TAP	81	192	2
TAP	81	192	7
TAP	82	0	1
TAP	82	96	0
TAP	82	96	1
TAP	82	192	6
TAP	82	288	6
TAP	82	288	7
TAP	83	0	5
TAP	83	96	3
TAP	83	96	4
TAP	83	192	2
TAP	83	192	5
TAP	84	0	6
TAP	84	96	6
TAP	84	96	7
TAP	84	192	1
TAP	84	288	0
TAP	84	288	1
HLD	85	0	7	96
TAP	85	96	0
TAP	85	192	0
TAP	85	192	7
TAP	85	288	0
TAP	85	288	7
BRK	86	0	1
BRK	86	0	6

T_REC_TAP	254
T_REC_BRK	8
T_REC_XTP	0
T_REC_HLD	25
T_REC_XHO	0
T_REC_STR	15
T_REC_BST	0
T_REC_XST	0
T_REC_TTP	0
T_REC_THO	0
T_REC_SLD	17
T_REC_ALL	319
T_NUM_TAP	269
T_NUM_BRK	8
T_NUM_HLD	25
T_NUM_SLD	17
T_NUM_ALL	319
T_JUDGE_TAP	277
T_JUDGE_HLD	82
T_JUDGE_SLD	17
T_JUDGE_ALL	376
TTM_EACHPAIRS	83
TTM_SCR_TAP	134500
TTM_SCR_BRK	20800
TTM_SCR_HLD	25000
TTM_SCR_SLD	25500
TTM_SCR_ALL	205800
TTM_SCR_S	198850
TTM_SCR_SS	205000
TTM_RAT_ACV	10039

