VERSION	0.00.00	1.03.00
FES_MODE	0
BPM_DEF	154.000	154.000	154.000	154.000
MET_DEF	4	4
RESOLUTION	384
CLK_DEF	384
COMPATIBLE_CODE	MA2

BPM	0	0	154.000

TAP	4	0	0
TAP	4	96	0
TAP	4	192	0
HLD	5	0	0	192
TAP	6	0	7
TAP	6	96	7
TAP	6	192	7
HLD	7	0	7	192
TAP	8	0	0
TAP	8	96	0
TAP	8	192	0
TAP	8	192	7
HLD	9	0	0	192
HLD	9	0	7	192
TAP	10	0	7
TAP	10	96	7
TAP	10	192	0
TAP	10	192	7
BRK	11	0	0
BRK	11	0	7
TAP	12	0	1
TAP	12	192	1
TAP	13	0	2
TAP	13	192	2
TAP	14	0	3
TAP	14	192	3
TAP	15	0	3
TAP	15	0	4
TAP	16	0	4
TAP	16	192	4
TAP	17	0	5
TAP	17	192	5
TAP	18	0	6
TAP	18	192	6
TAP	19	0	0
TAP	19	0	7
TAP	19	192	0
TAP	19	192	7
TAP	20	0	6
TAP	20	96	6
TAP	20	192	6
TAP	21	0	5
TAP	21	96	5
TAP	21	192	5
TAP	22	0	4
TAP	22	96	4
TAP	22	192	4
TAP	23	0	3
TAP	23	0	4
TAP	24	0	3
TAP	24	96	3
TAP	24	192	3
TAP	25	0	2
TAP	25	96	2
TAP	25	192	2
TAP	26	0	1
TAP	26	96	1
TAP	26	192	1
TAP	27	0	0
TAP	27	0	7
TAP	27	192	0
TAP	27	192	7
STR	28	0	0
SI_	28	0	0	96	288	3
STR	30	0	7
SI_	30	0	7	96	288	4
STR	32	0	1
SI_	32	0	1	96	288	6
STR	34	0	5
SI_	34	0	5	96	288	2
TAP	36	0	3
TAP	36	0	4
TAP	37	0	4
TAP	37	96	4
TAP	37	192	4
TAP	38	0	5
TAP	38	96	5
TAP	38	192	5
TAP	39	0	6
TAP	39	96	6
TAP	39	192	6
TAP	40	0	0
TAP	40	0	7
TAP	40	192	0
TAP	40	288	0
TAP	41	0	0
TAP	41	0	7
TAP	41	192	7
TAP	41	288	7
TAP	42	0	0
TAP	42	0	7
TAP	42	192	0
TAP	42	192	7
STR	43	0	0
SI_	43	0	0	96	288	3
STR	43	0	7
SI_	43	0	7	96	288	4
TAP	45	0	5
TAP	45	96	5
TAP	45	192	5
TAP	46	0	4
TAP	46	96	4
TAP	46	192	4
TAP	47	0	3
TAP	47	96	3
TAP	47	192	3
TAP	48	0	3
TAP	48	0	4
TAP	48	192	2
TAP	48	288	2
TAP	49	0	3
TAP	49	0	4
TAP	49	192	5
TAP	49	288	5
TAP	50	0	3
TAP	50	0	4
TAP	50	192	3
TAP	50	192	4
STR	51	0	3
SI_	51	0	3	96	288	0
STR	51	0	4
SI_	51	0	4	96	288	7
STR	53	0	0
SI_	53	0	0	96	288	4
STR	55	0	7
SI_	55	0	7	96	288	3
STR	57	0	1
SI_	57	0	1	96	288	4
STR	59	0	6
SI_	59	0	6	96	288	3
BRK	61	0	3
BRK	61	0	4
TAP	62	0	3
TAP	62	96	3
TAP	62	192	4
TAP	62	288	4
HLD	63	0	3	192
TAP	64	0	4
TAP	64	96	4
TAP	64	192	3
TAP	64	288	3
HLD	65	0	4	192
TAP	66	0	4
TAP	66	0	5
TAP	66	192	4
TAP	66	192	5
TAP	67	0	2
TAP	67	0	3
TAP	67	192	2
TAP	67	192	3
BRK	68	0	3
BRK	68	0	4
TAP	70	0	3
TAP	70	96	3
TAP	70	192	2
TAP	70	288	2
HLD	71	0	1	192
TAP	72	0	0
TAP	72	96	0
TAP	72	192	7
TAP	72	288	7
TAP	73	0	0
TAP	73	0	7
TAP	73	192	0
TAP	73	192	7
TAP	74	0	6
TAP	74	0	7
TAP	74	192	6
TAP	74	192	7
TAP	75	0	0
TAP	75	0	1
TAP	75	192	0
TAP	75	192	1
STR	76	0	0
SI_	76	0	0	96	288	3
STR	76	0	7
SI_	76	0	7	96	288	4
TAP	78	0	3
TAP	78	96	3
TAP	78	192	2
TAP	78	288	2
HLD	79	0	2	192
HLD	79	0	3	192
TAP	80	0	4
TAP	80	96	4
TAP	80	192	5
TAP	80	288	5
HLD	81	0	4	192
HLD	81	0	5	192
TAP	82	0	5
TAP	82	96	5
TAP	82	192	4
TAP	82	288	4
HLD	83	0	3	192
HLD	83	0	5	192
TAP	84	0	2
TAP	84	96	2
TAP	84	192	3
TAP	84	288	3
HLD	85	0	2	192
HLD	85	0	4	192
TAP	86	0	3
TAP	86	0	4

T_REC_TAP	154
T_REC_BRK	6
T_REC_XTP	0
T_REC_HLD	15
T_REC_XHO	0
T_REC_STR	14
T_REC_BST	0
T_REC_XST	0
T_REC_TTP	0
T_REC_THO	0
T_REC_SLD	14
T_REC_ALL	203
T_NUM_TAP	168
T_NUM_BRK	6
T_NUM_HLD	15
T_NUM_SLD	14
T_NUM_ALL	203
T_JUDGE_TAP	174
T_JUDGE_HLD	60
T_JUDGE_SLD	14
T_JUDGE_ALL	248
TTM_EACHPAIRS	39
TTM_SCR_TAP	84000
TTM_SCR_BRK	15600
TTM_SCR_HLD	15000
TTM_SCR_SLD	21000
TTM_SCR_ALL	135600
TTM_SCR_S	130950
TTM_SCR_SS	135000
TTM_RAT_ACV	10044

