VERSION	0.00.00	1.03.00
FES_MODE	0
BPM_DEF	210.000	210.000	210.000	210.000
MET_DEF	4	4
RESOLUTION	384
CLK_DEF	384
COMPATIBLE_CODE	MA2

BPM	0	0	210.000

TAP	2	0	1
TAP	2	64	4
TAP	2	96	3
TAP	2	192	6
TAP	2	256	3
TAP	2	288	4
TAP	3	0	0
TAP	3	0	2
TAP	3	96	0
TAP	3	96	6
TAP	3	160	5
TAP	3	192	4
TAP	3	288	3
TAP	3	288	6
TAP	4	0	6
TAP	4	64	3
TAP	4	96	4
TAP	4	192	1
TAP	4	256	4
TAP	4	288	3
TAP	5	0	5
TAP	5	0	7
TAP	5	96	1
TAP	5	96	7
TAP	5	160	2
STR	5	192	3
SI_	5	192	3	96	48	7
TAP	5	288	1
TAP	6	0	0
TAP	6	0	1
TAP	6	64	3
TAP	6	96	4
TAP	6	192	6
TAP	6	192	7
TAP	6	256	4
TAP	6	288	3
TAP	7	0	0
TAP	7	0	2
TAP	7	96	0
TAP	7	96	6
TAP	7	160	5
TAP	7	192	4
TAP	7	288	3
TAP	7	288	6
TAP	8	0	0
TAP	8	0	5
TAP	8	160	2
TAP	8	160	7
TAP	8	288	1
TAP	8	288	4
TAP	9	64	3
TAP	9	64	5
TAP	9	160	3
TAP	9	192	4
TAP	9	288	2
TAP	9	288	5
STR	10	0	1
SI_	10	0	1	96	48	4
TAP	10	64	1
TAP	10	96	0
STR	10	192	6
SI_	10	192	6	96	48	3
TAP	10	256	6
TAP	10	288	7
STR	11	0	1
SCR	11	0	1	96	48	4
TAP	11	64	1
TAP	11	96	0
STR	11	192	6
SCL	11	192	6	96	48	3
TAP	11	256	6
TAP	11	288	7
HLD	12	0	1	64
HLD	12	0	2	64
HLD	12	96	2	64
HLD	12	96	3	64
HLD	12	192	3	64
HLD	12	192	4	64
TAP	12	288	4
TAP	12	288	5
HLD	13	0	6	64
HLD	13	0	7	64
HLD	13	96	0	64
HLD	13	96	5	64
HLD	13	192	1	64
HLD	13	192	4	64
TAP	13	288	2
TAP	13	288	3
HLD	14	0	2	288
TAP	14	0	3
TAP	14	96	1
TAP	14	192	0
TAP	14	288	7
HLD	15	0	6	288
TAP	15	0	7
TAP	15	96	5
TAP	15	192	4
TAP	15	288	3
STR	16	0	2
SV_	16	0	2	96	112	0
STR	16	0	6
SV_	16	0	6	96	112	4
HLD	16	352	2	96
TAP	17	64	4
TAP	17	96	3
TAP	17	160	3
TAP	17	192	4
TAP	17	256	4
TAP	17	288	3
STR	18	0	5
SI_	18	0	5	96	48	0
TAP	18	64	5
TAP	18	96	4
STR	18	192	2
SI_	18	192	2	96	48	7
TAP	18	256	2
TAP	18	288	3
STR	19	0	5
SCR	19	0	5	96	48	0
TAP	19	64	5
TAP	19	96	4
STR	19	192	2
SCL	19	192	2	96	48	7
TAP	19	256	2
TAP	19	288	3
HLD	20	0	5	64
HLD	20	0	6	64
HLD	20	96	4	64
HLD	20	96	5	64
HLD	20	192	3	64
HLD	20	192	4	64
TAP	20	288	2
TAP	20	288	3
HLD	21	0	0	64
HLD	21	0	1	64
HLD	21	96	2	64
HLD	21	96	7	64
HLD	21	192	3	64
HLD	21	192	6	64
TAP	21	288	4
TAP	21	288	5
TAP	22	0	4
HLD	22	0	5	288
TAP	22	96	6
TAP	22	192	7
TAP	22	288	0
TAP	23	0	0
HLD	23	0	1	288
TAP	23	96	2
TAP	23	192	3
TAP	23	288	4
STR	24	0	1
SV_	24	0	1	96	112	3
STR	24	0	5
SV_	24	0	5	96	112	7
TAP	25	0	3
TAP	25	0	4
HLD	25	64	2	96
TAP	25	160	4
TAP	25	192	3
TAP	25	288	2
TAP	25	288	4
STR	26	0	2
SXR	26	0	2	96	192	7
TAP	26	96	3
TAP	26	192	4
TAP	26	288	5
STR	27	0	6
SCL	27	0	6	96	96	1
TAP	27	96	0
STR	27	160	0
SI_	27	160	0	96	48	4
STR	28	0	6
SXR	28	0	6	96	192	3
TAP	28	96	7
TAP	28	192	0
TAP	28	288	1
STR	29	0	2
SCL	29	0	2	96	96	5
TAP	29	96	4
STR	29	160	4
SI_	29	160	4	96	48	0
HLD	30	0	1	96
TAP	30	96	0
HLD	30	192	5	96
TAP	30	288	6
HLD	31	0	2	96
TAP	31	96	3
TAP	31	192	3
TAP	31	192	4
TAP	31	288	4
TAP	31	288	5
TAP	32	0	5
TAP	32	0	6
TAP	32	96	4
TAP	32	96	7
TAP	32	192	0
TAP	32	192	3
TAP	32	288	1
TAP	32	288	2
STR	33	0	1
SCL	33	0	1	96	96	6
STR	33	0	2
SCR	33	0	2	96	96	5
TAP	33	288	7
STR	34	0	6
SI_	34	0	6	96	48	3
TAP	34	96	0
STR	34	192	1
SI_	34	192	1	96	48	4
STR	34	288	7
SXL	34	288	7	96	192	3
SXR	34	288	7	96	192	3
TAP	35	288	2
TAP	35	288	4
STR	36	0	1
SI_	36	0	1	96	48	4
TAP	36	96	6
STR	36	192	6
SI_	36	192	6	96	48	3
STR	36	288	0
SXL	36	288	0	96	192	4
SXR	36	288	0	96	192	4
TAP	37	288	3
TAP	37	288	5
HLD	38	0	2	96
TAP	38	0	6
TAP	38	96	4
TAP	38	192	1
HLD	38	192	5	96
TAP	38	288	3
HLD	39	0	3	96
TAP	39	0	7
TAP	39	96	5
TAP	39	192	0
HLD	39	192	4	768
STR	39	288	2
SCR	39	288	2	96	336	1
BRK	41	96	0
BRK	41	192	0
TAP	41	352	4
STR	41	352	5
SI_	41	352	5	96	48	0
TAP	42	96	4
TAP	42	192	2
TAP	42	256	2
TAP	42	288	3
STR	42	352	2
SI_	42	352	2	96	48	7
TAP	42	352	3
TAP	43	96	3
TAP	43	192	5
TAP	43	256	5
TAP	43	288	4
TAP	43	352	3
STR	43	352	4
SI_	43	352	4	96	48	0
TAP	44	96	2
TAP	44	192	7
TAP	44	256	7
TAP	44	288	0
STR	44	352	1
SI_	44	352	1	96	48	4
STR	44	352	6
SI_	44	352	6	96	48	3
TAP	45	192	0
TAP	45	192	7
TAP	45	256	1
TAP	45	256	6
TAP	45	352	0
STR	45	352	1
SI_	45	352	1	96	48	4
TAP	46	96	7
TAP	46	192	5
TAP	46	256	5
TAP	46	288	4
STR	46	352	6
SI_	46	352	6	96	48	3
TAP	46	352	7
TAP	47	96	0
TAP	47	192	2
TAP	47	256	2
TAP	47	288	3
STR	47	352	1
SCR	47	352	1	96	192	7
STR	47	352	6
SCL	47	352	6	96	192	0
TAP	48	352	0
TAP	48	352	7
TAP	49	64	0
TAP	49	96	7
TAP	49	192	3
TAP	49	192	4
TAP	49	256	2
TAP	49	256	5
TAP	49	352	4
STR	49	352	6
SCR	49	352	6	96	64	1
TAP	50	64	3
TAP	50	96	3
TAP	50	192	3
TAP	50	256	4
TAP	50	288	3
STR	50	352	1
SCL	50	352	1	96	64	6
TAP	50	352	3
TAP	51	64	4
TAP	51	96	4
TAP	51	192	4
TAP	51	256	3
TAP	51	288	4
STR	51	352	5
SCL	51	352	5	96	64	2
TAP	51	352	7
TAP	52	64	0
TAP	52	96	0
TAP	52	192	0
TAP	52	256	7
TAP	52	288	0
TAP	52	352	0
STR	52	352	2
SCR	52	352	2	96	64	5
TAP	53	64	7
TAP	53	96	7
TAP	53	192	7
TAP	53	256	0
TAP	53	288	7
TAP	53	352	1
TAP	53	352	6
TAP	54	64	3
TAP	54	96	4
TAP	54	128	3
TAP	54	160	4
TAP	54	192	3
TAP	54	224	4
TAP	54	256	3
TAP	54	288	4
TAP	54	320	3
BRK	54	352	2
BRK	54	352	5
TAP	56	0	3
TAP	56	96	2
TAP	56	96	4
TAP	56	160	3
TAP	56	192	4
TAP	56	288	3
TAP	56	288	5
TAP	56	352	4
TAP	57	0	3
TAP	57	96	2
TAP	57	96	4
TAP	57	160	3
TAP	57	192	4
TAP	57	288	3
TAP	57	288	5
TAP	57	352	4
HLD	58	0	3	96
TAP	58	96	2
TAP	58	160	3
HLD	58	192	4	96
TAP	58	288	5
TAP	58	352	4
HLD	59	0	3	96
TAP	59	96	2
TAP	59	160	3
HLD	59	192	4	96
TAP	59	288	5
TAP	59	352	4
HLD	60	0	3	96
HLD	60	96	2	96
HLD	60	192	1	96
HLD	60	288	0	96
HLD	61	0	7	96
HLD	61	96	6	96
HLD	61	192	5	96
TAP	61	288	4
HLD	62	0	3	192
TAP	62	0	4
TAP	62	96	2
HLD	62	192	4	192
TAP	62	288	5
HLD	63	0	3	96
TAP	63	96	2
TAP	63	192	1
TAP	63	192	4
HLD	64	0	1	160
TAP	64	0	7
TAP	64	96	3
STR	64	160	3
SI_	64	160	3	96	64	7
TAP	64	288	0
TAP	65	0	1
STR	65	64	1
SUR	65	64	1	96	128	4
HLD	65	160	5	128
TAP	66	0	0
HLD	66	0	6	160
TAP	66	96	4
STR	66	160	4
SI_	66	160	4	96	48	0
TAP	66	288	7
TAP	67	0	6
STR	67	64	6
SUL	67	64	6	96	128	3
HLD	67	160	2	128
HLD	68	0	1	64
TAP	68	64	0
TAP	68	96	2
HLD	68	192	6	64
TAP	68	256	7
TAP	68	288	5
HLD	69	0	2	64
TAP	69	64	3
TAP	69	96	1
HLD	69	192	5	64
TAP	69	256	4
TAP	69	288	6
TAP	70	0	3
TAP	70	0	5
TAP	70	96	2
TAP	70	96	4
TAP	70	160	3
TAP	70	192	4
TAP	70	256	3
TAP	70	352	3
TAP	70	352	4
TAP	71	64	3
TAP	71	64	4
TAP	71	160	4
TAP	71	192	3
TAP	71	288	2
TAP	71	288	5
HLD	72	0	0	96
HLD	72	0	1	96
STR	72	160	0
SCL	72	160	0	96	48	5
STR	72	160	1
SCR	72	160	1	96	48	4
HLD	73	0	6	96
HLD	73	0	7	96
STR	73	160	6
SCL	73	160	6	96	48	3
STR	73	160	7
SCR	73	160	7	96	48	2
STR	74	0	0
SCR	74	0	0	96	96	3
STR	74	96	3
SCR	74	96	3	96	96	6
STR	74	192	6
SCR	74	192	6	96	96	1
STR	74	288	1
SXR	74	288	1	96	192	4
HLD	75	0	5	192
STR	76	0	6
SI_	76	0	6	96	48	2
TAP	76	96	4
STR	76	160	4
SI_	76	160	4	96	48	0
TAP	76	256	5
TAP	76	288	5
STR	77	0	1
SI_	77	0	1	96	48	5
TAP	77	96	3
STR	77	160	3
SI_	77	160	3	96	48	7
TAP	77	256	2
TAP	77	288	2
TAP	78	0	2
TAP	78	0	4
TAP	78	64	1
TAP	78	64	5
TAP	78	160	3
TAP	78	192	4
TAP	78	288	3
TAP	78	288	5
TAP	78	352	2
HLD	78	352	6	96
TAP	79	64	7
TAP	79	160	5
TAP	79	192	3
TAP	79	224	4
TAP	79	256	3
TAP	79	288	4
TAP	80	0	5
TAP	80	0	7
TAP	80	64	0
TAP	80	64	4
TAP	80	160	4
TAP	80	192	3
TAP	80	288	0
TAP	80	288	2
TAP	80	352	3
TAP	80	352	7
BRK	81	352	1
BRK	81	352	6
TAP	83	256	4
TAP	83	256	5
BRK	83	352	1
BRK	83	352	3
TAP	84	352	3
TAP	84	352	4
TAP	85	64	2
TAP	85	96	4
TAP	85	128	3
TAP	85	160	5
TAP	85	192	4
TAP	85	256	4
TAP	85	256	5
BRK	85	352	0
BRK	85	352	6
TAP	87	352	0
TAP	88	96	0
TAP	88	160	7
TAP	88	192	1
TAP	88	224	3
TAP	88	256	1
TAP	88	288	4
TAP	88	320	2
TAP	88	352	4
TAP	89	0	3
TAP	89	32	5
TAP	89	64	3
TAP	89	96	6
TAP	89	192	6
TAP	89	192	7
TAP	89	256	0
TAP	89	256	5
HLD	89	352	0	96
TAP	90	64	7
STR	90	96	6
SCR	90	96	6	96	48	1
TAP	90	160	6
STR	90	192	2
SUL	90	192	2	96	48	6
TAP	90	256	2
STR	90	288	5
SCR	90	288	5	96	96	2
TAP	90	352	5
TAP	91	96	3
TAP	91	192	0
TAP	91	192	1
TAP	91	256	2
TAP	91	256	7
HLD	91	352	7	96
TAP	92	64	0
STR	92	96	1
SCL	92	96	1	96	48	6
TAP	92	160	1
STR	92	192	5
SUR	92	192	5	96	48	1
TAP	92	256	5
STR	92	288	2
SCL	92	288	2	96	96	5
TAP	92	352	2
TAP	93	96	4
TAP	93	192	4
TAP	93	256	4
TAP	93	288	3
TAP	93	352	2
TAP	93	352	5
TAP	94	64	3
TAP	94	96	4
TAP	94	128	3
TAP	94	160	4
TAP	94	192	3
TAP	94	224	4
TAP	94	256	3
TAP	94	288	4
TAP	94	320	3
STR	94	352	4
SCL	94	352	4	96	128	1
STR	95	96	1
SCL	95	96	1	96	96	6
STR	95	192	6
SCL	95	192	6	96	96	3
TAP	95	288	1
STR	95	352	1
SI_	95	352	1	96	48	4
TAP	96	96	7
STR	96	192	6
SI_	96	192	6	96	48	3
TAP	96	256	6
STR	96	352	0
SUR	96	352	0	96	48	4
TAP	97	96	7
STR	97	192	7
SUL	97	192	7	96	48	3
TAP	97	256	7
STR	97	352	0
SCR	97	352	0	96	128	3
STR	98	96	3
SI_	98	96	3	96	96	7
STR	98	192	7
SCL	98	192	7	96	96	4
STR	98	288	4
SF_	98	288	4	96	96	0
TAP	99	192	3
TAP	99	192	4
TAP	99	256	2
TAP	99	256	5
STR	99	352	5
SCR	99	352	5	96	48	0
TAP	100	96	3
STR	100	192	2
SCL	100	192	2	96	48	7
TAP	100	256	2
STR	100	352	4
SUR	100	352	4	96	48	0
TAP	101	96	3
STR	101	192	3
SUL	101	192	3	96	48	7
TAP	101	256	3
STR	101	352	4
SCR	101	352	4	96	128	7
STR	102	96	7
SI_	102	96	7	96	96	3
STR	102	192	3
SCL	102	192	3	96	96	0
STR	102	288	0
SF_	102	288	0	96	96	4
TAP	103	192	0
TAP	103	192	7
TAP	103	256	1
TAP	103	256	6
STR	103	352	1
SI_	103	352	1	96	48	4
TAP	104	64	1
TAP	104	96	7
STR	104	192	7
SI_	104	192	7	96	48	3
TAP	104	256	7
STR	104	288	0
SCL	104	288	0	96	96	4
SCR	104	288	0	96	96	4
TAP	105	192	4
TAP	105	192	5
TAP	105	256	3
TAP	105	256	6
STR	105	352	6
SI_	105	352	6	96	48	3
TAP	106	64	6
TAP	106	96	0
STR	106	192	0
SI_	106	192	0	96	48	4
TAP	106	256	0
STR	106	288	7
SCL	106	288	7	96	96	3
SCR	106	288	7	96	96	3
TAP	107	192	2
TAP	107	192	3
TAP	107	256	1
TAP	107	256	4
TAP	107	352	2
TAP	107	352	5
TAP	108	64	3
TAP	108	96	4
TAP	108	128	3
TAP	108	160	4
TAP	108	192	3
TAP	108	224	4
TAP	108	256	3
TAP	108	288	4
TAP	108	320	3
HLD	108	352	4	320
BRK	109	96	0
BRK	109	192	0
BRK	109	288	0
STR	110	0	0
SI_	110	0	0	96	48	4
TAP	110	64	7
TAP	110	96	7
STR	110	192	6
SI_	110	192	6	96	48	3
TAP	110	256	7
TAP	110	288	7
STR	111	0	0
SI_	111	0	0	96	48	3
TAP	111	64	7
STR	111	96	0
SI_	111	96	0	96	48	5
TAP	111	192	0
TAP	111	288	2
STR	112	0	7
SI_	112	0	7	96	48	3
TAP	112	64	0
TAP	112	96	0
STR	112	192	1
SI_	112	192	1	96	48	4
TAP	112	256	0
TAP	112	288	0
STR	113	0	7
SI_	113	0	7	96	48	3
TAP	113	64	0
STR	113	96	7
SF_	113	96	7	96	48	3
TAP	113	192	7
STR	114	0	1
SI_	114	0	1	96	48	4
TAP	114	64	0
TAP	114	96	0
STR	114	192	6
SI_	114	192	6	96	48	3
TAP	114	256	7
TAP	114	288	7
STR	115	0	0
SCR	115	0	0	96	48	3
TAP	115	64	7
STR	115	96	0
SCL	115	96	0	96	48	5
TAP	115	192	0
TAP	115	288	2
HLD	116	0	0	96
HLD	116	0	5	96
HLD	116	160	3	96
HLD	116	160	6	96
HLD	116	288	1	96
HLD	116	288	4	96
TAP	117	64	2
TAP	117	64	5
TAP	117	160	3
TAP	117	192	4
TAP	117	224	3
TAP	117	256	4
TAP	117	288	3
HLD	118	0	2	96
HLD	118	0	6	96
HLD	118	160	1	96
HLD	118	160	5	96
STR	118	288	3
SUR	118	288	3	96	768	4
STR	118	288	7
SCL	118	288	7	96	768	0
BRK	119	0	3
BRK	119	0	7

T_REC_TAP	433
T_REC_BRK	15
T_REC_XTP	0
T_REC_HLD	78
T_REC_XHO	0
T_REC_STR	102
T_REC_BST	0
T_REC_XST	0
T_REC_TTP	0
T_REC_THO	0
T_REC_SLD	106
T_REC_ALL	734
T_NUM_TAP	535
T_NUM_BRK	15
T_NUM_HLD	78
T_NUM_SLD	106
T_NUM_ALL	734
T_JUDGE_TAP	550
T_JUDGE_HLD	203
T_JUDGE_SLD	106
T_JUDGE_ALL	859
TTM_EACHPAIRS	123
TTM_SCR_TAP	267500
TTM_SCR_BRK	39000
TTM_SCR_HLD	78000
TTM_SCR_SLD	159000
TTM_SCR_ALL	543500
TTM_SCR_S	525750
TTM_SCR_SS	542000
TTM_RAT_ACV	10027

