VERSION	0.00.00	1.03.00
FES_MODE	0
BPM_DEF	210.000	210.000	210.000	210.000
MET_DEF	4	4
RESOLUTION	384
CLK_DEF	384
COMPATIBLE_CODE	MA2

BPM	0	0	210.000

TAP	2	0	1
TAP	2	0	6
TAP	2	64	2
TAP	2	96	3
TAP	2	160	5
TAP	2	192	4
TAP	2	256	2
TAP	2	288	3
TAP	2	352	5
TAP	3	0	4
TAP	3	64	1
TAP	3	96	3
TAP	3	160	6
TAP	3	192	4
TAP	3	288	3
TAP	3	288	6
TAP	4	0	1
TAP	4	0	4
TAP	4	64	5
TAP	4	96	4
TAP	4	160	2
TAP	4	192	3
TAP	4	256	5
TAP	4	288	4
TAP	4	352	2
TAP	5	0	3
TAP	5	64	6
TAP	5	96	4
TAP	5	160	1
TAP	5	192	3
TAP	5	288	1
TAP	5	288	4
TAP	6	0	3
TAP	6	0	6
TAP	6	64	2
TAP	6	96	3
TAP	6	160	5
TAP	6	192	4
TAP	6	256	2
TAP	6	288	3
TAP	6	352	1
TAP	7	0	0
TAP	7	64	6
TAP	7	96	7
TAP	7	160	5
TAP	7	192	4
TAP	7	288	3
TAP	7	288	6
TAP	8	0	1
TAP	8	0	5
TAP	8	160	3
TAP	8	160	7
TAP	8	288	0
TAP	8	288	4
HLD	9	64	7	96
TAP	9	160	0
TAP	9	192	7
TAP	9	288	1
TAP	9	288	6
TAP	10	0	5
TAP	10	64	5
TAP	10	96	3
TAP	10	160	3
TAP	10	192	4
TAP	10	256	4
TAP	10	288	2
TAP	10	352	2
TAP	11	0	5
TAP	11	64	5
TAP	11	96	3
TAP	11	160	3
TAP	11	192	4
TAP	11	256	4
TAP	11	288	1
TAP	11	352	1
TAP	12	0	5
TAP	12	64	5
TAP	12	96	3
TAP	12	160	3
TAP	12	192	4
TAP	12	256	4
TAP	12	288	2
TAP	12	352	2
TAP	13	0	5
TAP	13	64	5
TAP	13	96	3
TAP	13	160	3
TAP	13	192	4
TAP	13	256	4
TAP	13	288	1
TAP	13	352	1
STR	14	0	5
SCL	14	0	5	96	96	2
TAP	14	96	0
STR	14	192	1
SCL	14	192	1	96	96	6
TAP	14	288	4
STR	15	0	5
SCL	15	0	5	96	96	2
TAP	15	96	0
STR	15	192	1
SCL	15	192	1	96	96	6
TAP	15	288	4
STR	16	0	5
SUL	16	0	5	96	192	3
HLD	16	96	2	480
TAP	17	0	3
TAP	17	96	3
TAP	17	192	3
TAP	17	288	1
TAP	17	288	4
TAP	18	0	2
TAP	18	64	2
TAP	18	96	4
TAP	18	160	4
TAP	18	192	3
TAP	18	256	3
TAP	18	288	5
TAP	18	352	5
TAP	19	0	2
TAP	19	64	2
TAP	19	96	4
TAP	19	160	4
TAP	19	192	3
TAP	19	256	3
TAP	19	288	6
TAP	19	352	6
TAP	20	0	2
TAP	20	64	2
TAP	20	96	4
TAP	20	160	4
TAP	20	192	3
TAP	20	256	3
TAP	20	288	5
TAP	20	352	5
TAP	21	0	2
TAP	21	64	2
TAP	21	96	4
TAP	21	160	4
TAP	21	192	3
TAP	21	256	3
TAP	21	288	6
TAP	21	352	6
STR	22	0	2
SCR	22	0	2	96	96	5
TAP	22	96	7
STR	22	192	6
SCR	22	192	6	96	96	1
TAP	22	288	3
STR	23	0	2
SCR	23	0	2	96	96	5
TAP	23	96	7
STR	23	192	6
SCR	23	192	6	96	96	1
TAP	23	288	3
STR	24	0	2
SUR	24	0	2	96	192	4
HLD	24	96	5	288
TAP	25	0	4
TAP	25	64	4
TAP	25	64	5
TAP	25	160	2
TAP	25	192	3
TAP	25	288	1
STR	25	288	4
SUL	25	288	4	96	192	2
HLD	26	0	3	384
TAP	26	288	2
TAP	27	0	2
TAP	27	96	1
TAP	27	96	4
TAP	27	160	1
TAP	27	160	4
STR	27	288	3
SUR	27	288	3	96	192	5
TAP	27	288	6
HLD	28	0	4	384
TAP	28	288	5
TAP	29	0	5
TAP	29	96	3
TAP	29	96	6
TAP	29	160	3
TAP	29	160	6
TAP	29	288	1
STR	29	288	4
SUL	29	288	4	96	192	2
HLD	30	0	3	384
TAP	30	288	2
TAP	31	0	2
TAP	31	96	4
TAP	31	96	5
TAP	31	192	6
TAP	31	192	7
TAP	31	288	0
TAP	31	288	1
TAP	32	0	2
TAP	32	0	3
TAP	32	96	0
TAP	32	96	1
TAP	32	192	6
TAP	32	192	7
STR	32	288	4
SCL	32	288	4	96	192	0
TAP	32	288	5
STR	33	288	0
SUL	33	288	0	96	192	6
TAP	33	288	5
HLD	34	0	7	384
TAP	34	288	6
TAP	35	0	6
TAP	35	96	0
TAP	35	96	5
TAP	35	160	0
TAP	35	160	5
TAP	35	288	6
TAP	35	288	7
TAP	36	0	4
TAP	36	0	5
TAP	36	96	2
TAP	36	96	3
TAP	36	192	0
STR	36	192	1
SCR	36	192	1	96	192	6
TAP	37	192	3
TAP	37	192	4
HLD	37	288	5	96
HLD	38	0	7	96
HLD	38	96	0	96
HLD	38	192	2	96
TAP	38	288	5
HLD	39	0	2	96
HLD	39	96	0	96
TAP	39	192	7
TAP	39	288	2
TAP	39	288	5
TAP	39	352	5
TAP	40	0	4
TAP	40	64	3
TAP	40	64	6
TAP	40	160	7
TAP	40	192	0
TAP	40	288	2
TAP	40	288	3
TAP	40	352	1
TAP	40	352	4
TAP	41	96	5
TAP	41	192	5
TAP	41	352	3
TAP	41	352	6
TAP	42	64	5
TAP	42	96	4
TAP	42	192	6
STR	42	256	6
SCR	42	256	6	96	64	1
TAP	42	352	3
TAP	43	64	2
TAP	43	96	3
TAP	43	192	1
STR	43	256	1
SCL	43	256	1	96	64	6
TAP	43	352	4
TAP	44	64	5
TAP	44	96	4
TAP	44	192	6
STR	44	256	6
SCR	44	256	6	96	64	1
TAP	44	352	3
TAP	45	64	3
TAP	45	96	4
TAP	45	192	2
TAP	45	192	5
TAP	45	256	2
TAP	45	256	5
TAP	45	352	1
TAP	45	352	4
TAP	46	64	2
TAP	46	96	3
TAP	46	192	1
STR	46	256	1
SCL	46	256	1	96	64	6
TAP	46	352	4
TAP	47	64	5
TAP	47	96	4
TAP	47	192	6
STR	47	256	6
SCR	47	256	6	96	64	1
TAP	47	352	3
TAP	48	64	2
TAP	48	96	3
STR	48	192	1
SI_	48	192	1	96	48	5
TAP	48	192	6
STR	48	288	7
SI_	48	288	7	96	48	4
STR	49	0	3
SI_	49	0	3	96	48	0
TAP	49	96	6
TAP	49	192	3
TAP	49	192	5
TAP	49	256	3
TAP	49	256	5
TAP	49	352	1
TAP	49	352	4
TAP	50	64	2
TAP	50	96	3
TAP	50	192	1
STR	50	256	1
SCL	50	256	1	96	64	6
TAP	50	352	4
TAP	51	64	5
TAP	51	96	4
TAP	51	192	6
STR	51	256	6
SCR	51	256	6	96	64	1
TAP	51	352	3
TAP	52	64	2
TAP	52	96	3
TAP	52	192	1
STR	52	256	1
SCL	52	256	1	96	64	6
TAP	52	352	4
TAP	53	64	5
TAP	53	96	4
TAP	53	192	5
TAP	53	256	5
TAP	53	352	3
TAP	53	352	6
TAP	54	64	7
STR	54	96	0
SI_	54	96	0	96	48	4
STR	54	192	7
SI_	54	192	7	96	48	3
TAP	54	288	0
HLD	54	352	0	320
STR	55	288	7
SCL	55	288	7	96	576	0
TAP	58	0	3
TAP	58	64	3
TAP	58	96	4
TAP	58	160	4
TAP	58	192	3
TAP	58	256	3
TAP	58	288	4
TAP	58	352	4
TAP	59	0	3
TAP	59	64	3
TAP	59	96	4
TAP	59	160	4
TAP	59	192	3
TAP	59	288	2
TAP	59	288	5
TAP	60	0	5
TAP	60	64	5
TAP	60	96	3
TAP	60	160	3
TAP	60	192	4
TAP	60	256	4
TAP	60	288	3
TAP	60	352	3
TAP	61	0	5
TAP	61	64	5
TAP	61	96	4
TAP	61	160	4
TAP	61	192	5
TAP	61	288	3
TAP	61	288	6
TAP	62	0	2
TAP	62	64	2
TAP	62	96	4
TAP	62	160	4
TAP	62	192	3
TAP	62	256	3
TAP	62	288	4
TAP	62	352	4
TAP	63	0	2
TAP	63	64	2
TAP	63	96	3
TAP	63	96	4
TAP	63	192	2
TAP	63	192	5
TAP	63	256	2
TAP	63	256	5
TAP	63	320	2
TAP	63	320	5
STR	64	0	6
SI_	64	0	6	96	96	2
TAP	64	96	1
TAP	64	192	0
TAP	64	256	0
TAP	64	288	7
STR	65	0	1
SI_	65	0	1	96	96	5
TAP	65	96	6
TAP	65	192	7
TAP	65	256	7
TAP	65	288	0
STR	66	0	6
SI_	66	0	6	96	96	2
TAP	66	96	1
TAP	66	192	0
TAP	66	256	0
TAP	66	288	7
TAP	67	0	1
TAP	67	0	3
TAP	67	96	2
TAP	67	96	4
TAP	67	192	4
TAP	67	192	6
TAP	67	288	3
TAP	67	288	5
STR	68	0	2
SCR	68	0	2	96	96	5
TAP	68	96	7
TAP	68	192	6
TAP	68	256	6
TAP	68	288	4
STR	69	0	5
SCL	69	0	5	96	96	2
TAP	69	96	0
TAP	69	192	1
TAP	69	256	1
TAP	69	288	3
STR	70	0	2
SCR	70	0	2	96	96	5
TAP	70	96	7
TAP	70	192	6
TAP	70	256	6
TAP	70	288	4
TAP	70	352	4
TAP	70	352	5
TAP	71	64	4
TAP	71	64	5
TAP	71	160	2
TAP	71	192	3
TAP	71	288	1
TAP	71	288	4
STR	72	0	6
SCR	72	0	6	96	96	1
TAP	72	96	2
TAP	72	192	3
TAP	72	256	3
TAP	72	288	4
STR	73	0	1
SCL	73	0	1	96	96	6
TAP	73	96	5
TAP	73	192	4
TAP	73	256	4
TAP	73	288	3
STR	74	0	6
SCR	74	0	6	96	96	1
TAP	74	96	2
TAP	74	192	3
TAP	74	256	3
TAP	74	288	4
TAP	75	0	1
TAP	75	0	4
TAP	75	96	2
TAP	75	96	5
TAP	75	192	3
TAP	75	192	6
TAP	75	288	2
TAP	75	288	5
STR	76	0	3
SCL	76	0	3	96	96	0
TAP	76	96	7
TAP	76	192	6
TAP	76	256	6
TAP	76	288	5
STR	77	0	4
SCR	77	0	4	96	96	7
TAP	77	96	0
TAP	77	192	1
TAP	77	256	1
TAP	77	288	2
TAP	78	0	2
TAP	78	0	3
TAP	78	64	1
TAP	78	64	4
TAP	78	160	4
TAP	78	192	3
TAP	78	288	4
TAP	78	288	5
TAP	78	352	3
HLD	78	352	6	320
TAP	79	192	4
TAP	79	288	3
TAP	80	0	6
TAP	80	0	7
TAP	80	64	0
TAP	80	64	5
TAP	80	160	0
TAP	80	192	7
TAP	80	288	0
TAP	80	288	1
HLD	80	352	2	320
HLD	80	352	7	320
HLD	81	352	1	608
HLD	81	352	5	608
TAP	83	256	1
TAP	83	256	5
HLD	83	352	2	608
HLD	83	352	6	608
TAP	85	256	2
TAP	85	256	6
HLD	85	352	0	992
HLD	85	352	4	768
TAP	89	0	3
TAP	89	64	3
TAP	89	96	4
TAP	89	192	2
TAP	89	192	4
TAP	89	256	2
TAP	89	256	4
TAP	89	352	3
TAP	89	352	6
TAP	90	64	5
STR	90	96	4
SI_	90	96	4	96	64	0
TAP	90	192	7
STR	90	256	7
SCL	90	256	7	96	64	4
TAP	90	352	3
TAP	91	64	2
STR	91	96	3
SI_	91	96	3	96	64	7
TAP	91	192	0
STR	91	256	0
SCR	91	256	0	96	64	3
TAP	91	352	4
TAP	92	64	5
STR	92	96	4
SI_	92	96	4	96	64	0
TAP	92	192	7
STR	92	256	7
SCL	92	256	7	96	64	4
TAP	92	352	3
TAP	93	64	2
STR	93	96	3
SI_	93	96	3	96	64	7
TAP	93	192	2
TAP	93	256	2
TAP	93	352	1
TAP	93	352	4
TAP	94	64	5
TAP	94	96	4
TAP	94	160	2
TAP	94	192	3
TAP	94	288	2
TAP	94	288	5
TAP	94	352	2
TAP	94	352	5
TAP	95	64	3
TAP	95	96	4
TAP	95	192	2
TAP	95	192	6
TAP	95	288	1
TAP	95	288	4
TAP	95	352	1
TAP	95	352	4
TAP	96	64	5
STR	96	96	4
SI_	96	96	4	96	64	0
TAP	96	192	7
TAP	96	256	7
TAP	96	352	3
TAP	96	352	6
TAP	97	64	2
STR	97	96	3
SI_	97	96	3	96	64	7
TAP	97	192	0
TAP	97	256	0
TAP	97	352	1
TAP	97	352	4
TAP	98	64	5
STR	98	96	4
SI_	98	96	4	96	64	0
TAP	98	192	7
TAP	98	256	7
TAP	98	352	1
TAP	98	352	6
TAP	99	64	0
TAP	99	96	7
TAP	99	192	2
TAP	99	192	5
TAP	99	256	2
TAP	99	256	5
TAP	99	352	3
TAP	99	352	6
TAP	100	64	2
STR	100	96	3
SI_	100	96	3	96	64	7
TAP	100	192	0
TAP	100	256	0
TAP	100	352	1
TAP	100	352	4
TAP	101	64	5
STR	101	96	4
SI_	101	96	4	96	64	0
TAP	101	192	7
TAP	101	256	7
TAP	101	352	3
TAP	101	352	6
TAP	102	64	2
STR	102	96	3
SI_	102	96	3	96	64	7
TAP	102	192	0
TAP	102	256	0
TAP	102	352	1
TAP	102	352	6
TAP	103	64	5
TAP	103	96	4
TAP	103	160	2
TAP	103	192	3
TAP	103	256	3
TAP	103	256	4
TAP	103	352	2
TAP	103	352	6
TAP	104	64	7
STR	104	96	0
SI_	104	96	0	96	64	4
TAP	104	192	6
STR	104	256	6
SCL	104	256	6	96	64	3
TAP	104	352	1
TAP	105	64	0
STR	105	96	7
SI_	105	96	7	96	64	3
TAP	105	192	1
STR	105	256	1
SCR	105	256	1	96	64	4
TAP	105	352	6
TAP	106	64	7
STR	106	96	0
SI_	106	96	0	96	64	4
TAP	106	192	6
STR	106	256	6
SCL	106	256	6	96	64	3
TAP	106	352	2
TAP	107	64	0
TAP	107	96	7
TAP	107	192	1
TAP	107	192	6
TAP	107	256	1
TAP	107	256	6
TAP	107	352	3
TAP	107	352	4
TAP	108	64	4
TAP	108	96	3
TAP	108	128	4
TAP	108	160	3
TAP	108	192	4
TAP	108	224	3
TAP	108	256	4
TAP	108	288	3
TAP	108	320	4
TAP	108	352	3
TAP	109	64	7
TAP	109	96	0
TAP	109	192	1
TAP	109	192	6
TAP	109	288	3
TAP	109	288	4
TAP	110	0	1
TAP	110	0	5
TAP	110	64	2
TAP	110	96	3
TAP	110	160	5
TAP	110	192	4
TAP	110	256	6
TAP	110	288	7
TAP	110	352	1
TAP	111	0	0
TAP	111	64	2
TAP	111	96	3
TAP	111	160	5
TAP	111	192	4
TAP	111	288	1
TAP	111	288	5
TAP	112	0	2
TAP	112	0	6
TAP	112	64	5
TAP	112	96	4
TAP	112	160	2
TAP	112	192	3
TAP	112	256	1
TAP	112	288	0
TAP	112	352	6
TAP	113	0	7
TAP	113	64	5
TAP	113	96	4
TAP	113	160	2
TAP	113	192	3
TAP	113	288	2
TAP	113	288	6
TAP	114	0	1
TAP	114	0	5
TAP	114	64	2
TAP	114	96	3
TAP	114	160	6
TAP	114	192	7
TAP	114	256	5
TAP	114	288	4
TAP	114	352	1
TAP	115	0	0
TAP	115	64	2
TAP	115	96	3
TAP	115	160	5
TAP	115	192	4
TAP	115	288	1
TAP	115	288	6
TAP	116	0	2
TAP	116	0	4
TAP	116	160	3
TAP	116	160	7
TAP	116	288	0
TAP	116	288	4
HLD	117	64	7	96
TAP	117	160	0
TAP	117	192	7
TAP	117	288	1
TAP	117	288	6
TAP	118	0	3
TAP	118	0	5
TAP	118	160	0
TAP	118	160	4
TAP	118	288	3
STR	118	288	7
SCL	118	288	7	96	384	0
BRK	119	0	0

T_REC_TAP	582
T_REC_BRK	1
T_REC_XTP	0
T_REC_HLD	24
T_REC_XHO	0
T_REC_STR	61
T_REC_BST	0
T_REC_XST	0
T_REC_TTP	0
T_REC_THO	0
T_REC_SLD	61
T_REC_ALL	729
T_NUM_TAP	643
T_NUM_BRK	1
T_NUM_HLD	24
T_NUM_SLD	61
T_NUM_ALL	729
T_JUDGE_TAP	644
T_JUDGE_HLD	181
T_JUDGE_SLD	61
T_JUDGE_ALL	886
TTM_EACHPAIRS	115
TTM_SCR_TAP	321500
TTM_SCR_BRK	2600
TTM_SCR_HLD	24000
TTM_SCR_SLD	91500
TTM_SCR_ALL	439600
TTM_SCR_S	426350
TTM_SCR_SS	439500
TTM_RAT_ACV	10002

