VERSION	0.00.00	1.03.00
FES_MODE	0
BPM_DEF	210.000	210.000	210.000	210.000
MET_DEF	4	4
RESOLUTION	384
CLK_DEF	384
COMPATIBLE_CODE	MA2

BPM	0	0	210.000

TAP	2	0	1
TAP	2	0	3
TAP	2	96	2
TAP	2	192	3
TAP	2	288	4
TAP	3	0	4
TAP	3	0	5
TAP	3	96	3
TAP	3	96	6
TAP	3	192	3
TAP	3	192	6
TAP	3	288	7
TAP	4	0	4
TAP	4	0	6
TAP	4	96	5
TAP	4	192	4
TAP	4	288	3
TAP	5	0	2
TAP	5	0	3
TAP	5	96	1
TAP	5	96	4
TAP	5	192	1
TAP	5	192	4
TAP	6	0	1
TAP	6	0	3
TAP	6	96	2
TAP	6	192	3
TAP	6	288	4
TAP	7	0	4
TAP	7	0	5
TAP	7	96	4
TAP	7	96	5
TAP	7	192	3
TAP	7	192	6
TAP	7	288	7
BRK	8	0	0
BRK	8	0	7
BRK	8	160	0
BRK	8	160	2
BRK	8	288	0
BRK	8	288	5
HLD	9	64	0	128
HLD	9	64	7	128
TAP	9	288	1
TAP	9	288	6
HLD	10	0	2	96
TAP	10	96	3
HLD	10	192	4	96
TAP	10	288	3
HLD	11	0	2	96
TAP	11	96	3
HLD	11	192	4	96
TAP	11	288	3
HLD	12	0	1	96
TAP	12	96	3
HLD	12	192	4	96
TAP	12	288	3
HLD	13	0	1	96
TAP	13	96	3
TAP	13	192	2
TAP	13	192	4
TAP	13	288	5
TAP	14	0	4
TAP	14	0	6
TAP	14	96	3
TAP	14	96	5
TAP	14	192	2
TAP	14	192	4
TAP	14	288	1
TAP	14	288	3
TAP	15	0	1
TAP	15	0	3
TAP	15	96	2
TAP	15	96	4
TAP	15	192	3
TAP	15	192	5
TAP	15	288	4
TAP	15	288	6
TAP	16	0	0
STR	16	0	7
SLL	16	0	7	96	288	3
TAP	17	192	3
TAP	17	192	4
TAP	17	288	2
TAP	17	288	5
HLD	18	0	5	96
TAP	18	96	4
HLD	18	192	3	96
TAP	18	288	4
HLD	19	0	5	96
TAP	19	96	4
HLD	19	192	3	96
TAP	19	288	4
HLD	20	0	6	96
TAP	20	96	4
HLD	20	192	3	96
TAP	20	288	4
HLD	21	0	6	96
TAP	21	96	4
TAP	21	192	3
TAP	21	192	5
TAP	21	288	2
TAP	22	0	1
TAP	22	0	3
TAP	22	96	2
TAP	22	96	4
TAP	22	192	3
TAP	22	192	5
TAP	22	288	4
TAP	22	288	6
TAP	23	0	4
TAP	23	0	6
TAP	23	96	3
TAP	23	96	5
TAP	23	192	2
TAP	23	192	4
TAP	23	288	1
TAP	23	288	3
STR	24	0	0
SLR	24	0	0	96	288	4
TAP	24	0	7
TAP	25	192	3
TAP	25	192	4
STR	25	288	6
SI_	25	288	6	96	160	2
HLD	26	0	1	288
STR	26	288	3
SCR	26	288	3	96	160	6
STR	27	288	1
SI_	27	288	1	96	160	5
HLD	28	0	6	288
STR	28	288	4
SCL	28	288	4	96	160	1
STR	29	288	7
SI_	29	288	7	96	160	3
HLD	30	0	2	288
TAP	30	288	3
TAP	31	0	3
TAP	31	0	4
TAP	31	96	5
TAP	31	192	4
TAP	31	192	6
TAP	31	288	5
TAP	32	0	3
TAP	32	0	4
TAP	32	96	2
TAP	32	192	1
TAP	32	192	3
STR	32	288	0
SCR	32	288	0	96	160	4
STR	33	288	6
SI_	33	288	6	96	160	2
HLD	34	0	1	288
STR	34	288	3
SCR	34	288	3	96	160	6
TAP	35	288	1
TAP	36	0	2
TAP	36	96	3
TAP	36	192	3
TAP	36	192	4
TAP	36	288	2
TAP	36	288	5
TAP	36	352	2
TAP	36	352	5
TAP	37	96	4
TAP	37	192	3
HLD	37	288	2	96
TAP	38	0	3
HLD	38	96	5	96
TAP	38	192	4
HLD	38	288	1	96
TAP	39	0	3
HLD	39	96	6	96
TAP	39	192	4
TAP	39	288	7
HLD	39	352	0	384
HLD	39	352	7	384
TAP	41	96	5
TAP	41	192	5
TAP	41	352	1
TAP	41	352	6
TAP	42	96	6
TAP	42	96	7
TAP	42	192	1
TAP	42	192	5
TAP	42	256	1
STR	42	256	5
SCL	42	256	5	96	96	2
TAP	43	96	0
TAP	43	192	2
TAP	43	192	6
STR	43	256	2
SCR	43	256	2	96	96	5
TAP	43	256	6
TAP	44	96	7
TAP	44	192	0
TAP	44	192	5
TAP	44	256	0
TAP	44	256	5
BRK	44	352	2
BRK	44	352	7
TAP	45	96	3
TAP	45	96	4
TAP	45	192	6
TAP	45	256	6
TAP	45	352	2
TAP	45	352	5
TAP	46	96	0
TAP	46	96	1
TAP	46	192	2
TAP	46	192	6
STR	46	256	2
SCR	46	256	2	96	64	5
TAP	46	256	6
TAP	47	96	7
TAP	47	192	0
TAP	47	192	5
STR	47	256	0
SXL	47	256	0	96	320	5
TAP	47	256	5
TAP	49	0	6
TAP	49	96	0
TAP	49	192	4
TAP	49	192	6
STR	49	256	4
SI_	49	256	4	96	96	1
TAP	49	256	6
TAP	50	96	7
TAP	50	192	4
TAP	50	192	5
TAP	50	256	4
STR	50	256	5
SCR	50	256	5	96	128	1
TAP	51	192	1
TAP	51	192	3
TAP	51	256	1
STR	51	256	3
SI_	51	256	3	96	96	6
TAP	52	96	0
TAP	52	192	2
TAP	52	192	3
STR	52	256	2
SCL	52	256	2	96	128	6
TAP	52	256	3
TAP	53	192	4
TAP	53	192	6
TAP	53	256	4
TAP	53	256	6
TAP	53	352	3
TAP	53	352	4
TAP	54	96	0
TAP	54	96	7
TAP	54	192	1
TAP	54	192	6
BRK	54	288	2
BRK	54	288	5
BRK	54	352	2
BRK	54	352	5
TAP	56	0	4
TAP	56	96	4
TAP	56	192	3
TAP	56	288	3
TAP	57	0	5
TAP	57	96	4
TAP	57	192	2
TAP	57	288	3
TAP	58	0	4
TAP	58	96	4
TAP	58	192	3
TAP	58	288	3
TAP	59	0	6
TAP	59	96	4
TAP	59	192	1
TAP	59	288	3
TAP	60	0	5
TAP	60	96	4
TAP	60	192	2
TAP	60	288	3
TAP	61	0	6
TAP	61	96	5
TAP	61	192	1
TAP	61	288	2
TAP	62	0	5
TAP	62	96	4
TAP	62	192	2
TAP	62	288	3
STR	63	0	7
SI_	63	0	7	96	96	3
TAP	63	192	0
TAP	64	0	2
TAP	64	96	1
TAP	64	96	3
TAP	64	192	5
TAP	64	256	5
TAP	64	288	4
TAP	65	0	2
TAP	65	96	1
TAP	65	96	3
TAP	65	192	5
TAP	65	256	5
TAP	65	288	4
TAP	66	0	2
TAP	66	96	2
TAP	66	96	3
TAP	66	192	3
TAP	66	192	4
TAP	66	288	4
TAP	66	288	5
HLD	67	0	5	96
TAP	67	96	4
TAP	67	192	3
TAP	67	192	6
TAP	68	0	5
TAP	68	96	4
TAP	68	96	6
TAP	68	192	2
TAP	68	256	2
TAP	68	288	3
TAP	69	0	5
TAP	69	96	4
TAP	69	96	6
TAP	69	192	2
TAP	69	256	2
TAP	69	288	3
TAP	70	0	5
TAP	70	96	4
TAP	70	96	5
TAP	70	192	3
TAP	70	192	4
STR	70	288	2
SXR	70	288	2	96	288	4
TAP	70	288	3
TAP	72	0	5
TAP	72	96	4
TAP	72	96	6
TAP	72	192	2
TAP	72	256	2
TAP	72	288	3
TAP	73	0	5
TAP	73	96	4
TAP	73	96	6
TAP	73	192	2
TAP	73	256	2
TAP	73	288	3
TAP	74	0	3
TAP	74	0	6
TAP	74	96	4
TAP	74	192	3
TAP	74	288	2
TAP	75	0	1
TAP	75	0	4
TAP	75	96	3
TAP	75	192	4
TAP	75	288	5
TAP	76	0	3
TAP	76	0	5
TAP	76	96	2
TAP	76	192	1
TAP	76	288	1
TAP	77	0	2
TAP	77	0	4
TAP	77	96	5
TAP	77	192	6
TAP	77	288	6
HLD	78	0	6	64
HLD	78	0	7	64
HLD	78	160	6	32
HLD	78	160	7	32
TAP	78	288	6
TAP	78	288	7
STR	78	352	6
SI_	78	352	6	96	128	4
STR	78	352	7
SI_	78	352	7	96	128	3
HLD	80	0	0	64
HLD	80	0	1	64
HLD	80	160	0	32
HLD	80	160	1	32
TAP	80	288	0
TAP	80	288	1
STR	80	352	0
SI_	80	352	0	96	128	4
STR	80	352	1
SI_	80	352	1	96	128	3
TAP	81	288	0
TAP	81	288	7
HLD	81	352	0	608
HLD	81	352	7	608
TAP	83	256	0
TAP	83	256	7
HLD	83	352	1	416
HLD	83	352	6	416
TAP	85	96	1
TAP	85	96	6
TAP	85	192	2
TAP	85	192	5
TAP	85	288	3
TAP	85	288	4
HLD	85	352	3	608
HLD	85	352	4	768
TAP	88	192	5
TAP	88	288	3
TAP	88	288	4
TAP	89	0	2
TAP	89	0	5
TAP	89	96	1
TAP	89	96	6
TAP	89	192	5
TAP	89	192	7
STR	89	256	5
SI_	89	256	5	96	64	1
TAP	89	256	7
TAP	90	96	0
TAP	90	192	4
TAP	90	192	5
TAP	90	256	4
STR	90	256	5
SCR	90	256	5	96	128	1
TAP	91	192	0
TAP	91	192	2
TAP	91	256	0
STR	91	256	2
SI_	91	256	2	96	64	6
TAP	92	96	7
TAP	92	192	2
TAP	92	192	3
STR	92	256	2
SCL	92	256	2	96	128	6
TAP	92	256	3
TAP	93	192	4
TAP	93	192	6
TAP	93	256	4
TAP	93	256	6
TAP	93	352	0
TAP	93	352	1
TAP	94	96	6
TAP	94	96	7
TAP	94	192	0
TAP	94	192	7
BRK	94	288	2
BRK	94	288	5
BRK	94	352	2
BRK	94	352	5
TAP	95	96	0
TAP	95	96	7
TAP	95	192	1
TAP	95	192	6
TAP	95	288	2
TAP	95	288	5
HLD	96	0	2	96
TAP	96	96	3
TAP	96	192	1
TAP	96	192	7
TAP	96	288	6
HLD	97	0	5	96
TAP	97	96	4
TAP	97	192	0
TAP	97	192	6
TAP	97	288	1
HLD	98	0	2	96
TAP	98	96	3
TAP	98	192	1
TAP	98	192	7
TAP	98	288	6
TAP	99	0	5
TAP	99	96	3
TAP	99	96	6
TAP	99	192	2
TAP	99	288	1
TAP	99	288	4
HLD	100	0	5	96
TAP	100	96	4
TAP	100	192	0
TAP	100	192	6
TAP	100	288	1
HLD	101	0	2	96
TAP	101	96	3
TAP	101	192	1
TAP	101	192	7
TAP	101	288	6
HLD	102	0	5	96
TAP	102	96	4
TAP	102	192	0
TAP	102	192	6
TAP	102	288	1
TAP	103	0	2
TAP	103	96	3
TAP	103	96	4
TAP	103	192	2
TAP	103	192	5
TAP	104	0	1
TAP	104	0	3
TAP	104	96	0
TAP	104	192	6
TAP	104	192	7
TAP	104	288	5
TAP	105	0	4
TAP	105	0	6
TAP	105	96	7
TAP	105	192	0
TAP	105	192	1
TAP	105	288	2
TAP	106	0	1
TAP	106	0	3
TAP	106	96	0
TAP	106	192	6
TAP	106	192	7
TAP	106	288	5
TAP	107	0	4
TAP	107	0	6
TAP	107	96	7
TAP	107	192	0
TAP	107	192	1
TAP	107	288	2
TAP	108	0	1
TAP	108	0	3
TAP	108	96	3
TAP	108	96	4
TAP	108	192	2
TAP	108	192	5
BRK	108	288	1
BRK	108	288	6
BRK	108	352	1
BRK	108	352	6
TAP	109	96	5
TAP	109	192	4
TAP	109	288	3
TAP	110	0	1
TAP	110	0	4
TAP	110	96	3
TAP	110	192	5
TAP	110	256	5
TAP	110	288	4
TAP	111	0	6
TAP	111	0	7
TAP	111	96	6
TAP	111	96	7
TAP	111	192	0
TAP	111	192	5
TAP	111	288	7
TAP	112	0	3
TAP	112	0	6
TAP	112	96	5
TAP	112	192	2
TAP	112	256	2
TAP	112	288	3
TAP	113	0	0
TAP	113	0	1
TAP	113	96	0
TAP	113	96	1
TAP	113	192	2
TAP	113	192	7
TAP	114	0	2
TAP	114	0	5
TAP	114	96	3
TAP	114	192	2
TAP	114	256	2
TAP	114	288	3
TAP	115	0	3
TAP	115	0	4
TAP	115	96	3
TAP	115	96	4
TAP	115	192	1
TAP	115	192	6
TAP	115	288	1
TAP	115	288	6
BRK	116	0	0
BRK	116	0	7
BRK	116	160	5
BRK	116	160	7
BRK	116	288	2
BRK	116	288	7
HLD	117	64	3	128
HLD	117	64	4	128
TAP	117	288	2
TAP	117	288	5
BRK	118	0	3
BRK	118	0	4
BRK	118	160	4
BRK	118	160	6
BRK	118	288	1
BRK	118	288	4
STR	119	0	1
SCL	119	0	1	96	864	4
TAP	119	0	4

T_REC_TAP	446
T_REC_BRK	32
T_REC_XTP	0
T_REC_HLD	49
T_REC_XHO	0
T_REC_STR	29
T_REC_BST	0
T_REC_XST	0
T_REC_TTP	0
T_REC_THO	0
T_REC_SLD	29
T_REC_ALL	585
T_NUM_TAP	475
T_NUM_BRK	32
T_NUM_HLD	49
T_NUM_SLD	29
T_NUM_ALL	585
T_JUDGE_TAP	507
T_JUDGE_HLD	187
T_JUDGE_SLD	29
T_JUDGE_ALL	723
TTM_EACHPAIRS	178
TTM_SCR_TAP	237500
TTM_SCR_BRK	83200
TTM_SCR_HLD	49000
TTM_SCR_SLD	43500
TTM_SCR_ALL	413200
TTM_SCR_S	397700
TTM_SCR_SS	410000
TTM_RAT_ACV	10078

