VERSION	0.00.00	1.03.00
FES_MODE	0
BPM_DEF	210.000	210.000	210.000	210.000
MET_DEF	4	4
RESOLUTION	384
CLK_DEF	384
COMPATIBLE_CODE	MA2

BPM	0	0	210.000

TAP	2	0	2
TAP	2	96	2
TAP	2	192	2
TAP	2	288	2
TAP	3	0	3
TAP	3	96	3
TAP	3	192	3
TAP	4	0	5
TAP	4	96	5
TAP	4	192	5
TAP	4	288	5
TAP	5	0	4
TAP	5	96	4
TAP	5	192	3
TAP	5	192	4
TAP	6	0	2
TAP	6	96	2
TAP	6	192	3
TAP	6	288	3
TAP	7	0	4
TAP	7	96	4
TAP	7	192	3
TAP	7	192	4
STR	8	0	3
SI_	8	0	3	96	288	0
STR	8	0	4
SI_	8	0	4	96	288	7
TAP	9	192	1
TAP	9	192	6
TAP	10	0	2
TAP	10	96	2
TAP	10	192	2
TAP	10	192	3
TAP	10	288	2
TAP	10	288	3
TAP	11	0	4
TAP	11	96	4
TAP	11	192	4
TAP	11	192	5
TAP	11	288	4
TAP	11	288	5
TAP	12	0	3
TAP	12	96	3
TAP	12	192	3
TAP	12	192	4
TAP	12	288	3
TAP	12	288	4
TAP	13	0	5
TAP	13	96	5
TAP	13	192	4
TAP	13	192	5
HLD	14	0	6	192
TAP	14	192	7
HLD	15	0	1	192
TAP	15	192	0
STR	16	0	7
SCL	16	0	7	96	288	3
TAP	17	192	2
TAP	17	192	3
TAP	18	0	5
TAP	18	96	5
TAP	18	192	4
TAP	18	192	5
TAP	18	288	4
TAP	18	288	5
TAP	19	0	3
TAP	19	96	3
TAP	19	192	2
TAP	19	192	3
TAP	19	288	2
TAP	19	288	3
TAP	20	0	4
TAP	20	96	4
TAP	20	192	3
TAP	20	192	4
TAP	20	288	3
TAP	20	288	4
TAP	21	0	2
TAP	21	96	2
TAP	21	192	2
TAP	21	192	3
HLD	22	0	1	192
TAP	22	192	0
HLD	23	0	6	192
TAP	23	192	7
STR	24	0	0
SCR	24	0	0	96	288	3
STR	24	0	7
SCL	24	0	7	96	288	4
TAP	25	192	2
TAP	25	192	5
STR	26	0	6
SI_	26	0	6	96	288	3
STR	26	0	7
SI_	26	0	7	96	288	2
TAP	27	192	2
TAP	27	192	5
STR	28	0	0
SI_	28	0	0	96	288	5
STR	28	0	1
SI_	28	0	1	96	288	4
TAP	29	192	3
TAP	29	192	6
HLD	30	0	5	192
HLD	30	192	4	192
TAP	31	0	5
TAP	31	96	5
TAP	31	192	4
TAP	31	192	5
TAP	32	0	3
TAP	32	96	3
TAP	32	192	4
TAP	32	288	4
TAP	33	0	3
TAP	33	0	4
TAP	33	192	2
TAP	33	192	5
TAP	34	0	5
TAP	34	96	5
TAP	34	192	4
TAP	35	0	2
TAP	35	96	2
TAP	35	192	3
TAP	36	0	4
TAP	36	0	6
TAP	36	192	1
TAP	36	192	3
TAP	37	0	4
TAP	37	96	4
TAP	37	192	3
TAP	37	192	5
HLD	38	0	4	192
HLD	38	0	6	192
HLD	39	0	1	192
HLD	39	0	3	192
STR	40	0	3
SCL	40	0	3	96	288	0
STR	40	0	4
SCR	40	0	4	96	288	7
TAP	41	192	1
TAP	41	192	6
TAP	42	0	0
TAP	42	96	0
TAP	42	192	1
TAP	42	288	1
TAP	43	0	2
TAP	43	96	2
TAP	43	192	2
TAP	43	192	3
TAP	44	0	4
TAP	44	96	4
TAP	44	192	5
TAP	44	288	5
TAP	45	0	4
TAP	45	0	6
TAP	45	96	4
TAP	45	96	6
TAP	45	192	4
TAP	45	192	6
TAP	46	0	1
TAP	46	0	3
TAP	46	96	1
TAP	46	96	3
TAP	46	192	1
TAP	46	192	3
TAP	47	0	0
TAP	47	96	0
TAP	47	192	7
STR	47	288	7
SCL	47	288	7	96	384	2
TAP	49	192	0
TAP	49	192	1
TAP	50	0	7
TAP	50	96	7
TAP	50	192	6
TAP	50	288	6
TAP	51	0	5
TAP	51	96	4
TAP	51	96	5
TAP	51	192	3
TAP	51	192	6
TAP	52	0	0
TAP	52	96	0
TAP	52	192	1
TAP	52	288	1
TAP	53	0	2
TAP	53	96	2
TAP	53	96	3
TAP	53	192	1
TAP	53	192	4
TAP	54	0	4
TAP	54	96	4
TAP	54	192	3
TAP	54	288	3
HLD	55	0	3	384
TAP	55	0	4
STR	56	0	4
SXL	56	0	4	96	480	7
STR	58	0	0
SXL	58	0	0	96	480	3
STR	60	0	4
SXL	60	0	4	96	480	0
HLD	62	0	2	192
HLD	62	192	3	192
TAP	63	0	4
TAP	63	192	2
TAP	63	192	5
TAP	64	0	5
TAP	64	96	5
TAP	64	192	3
TAP	64	288	3
TAP	65	0	3
TAP	65	0	4
TAP	65	192	2
TAP	65	192	5
STR	66	0	1
SCL	66	0	1	96	288	5
TAP	67	192	3
TAP	67	192	4
TAP	68	0	1
TAP	68	96	1
TAP	68	192	7
TAP	68	288	7
TAP	69	0	0
TAP	69	0	7
TAP	69	192	1
TAP	69	192	6
STR	70	0	5
SCL	70	0	5	96	288	1
TAP	71	192	0
TAP	71	192	7
HLD	72	0	6	192
HLD	72	192	4	192
TAP	73	0	5
TAP	73	96	5
TAP	73	192	4
TAP	73	192	5
HLD	74	0	1	192
HLD	74	192	3	192
TAP	75	0	2
TAP	75	96	2
TAP	75	192	2
TAP	75	192	3
TAP	76	0	5
TAP	76	96	4
TAP	76	192	4
TAP	76	192	5
TAP	77	0	2
TAP	77	96	3
TAP	77	192	2
TAP	77	192	3
STR	78	0	1
SLR	78	0	1	96	384	7
STR	80	0	6
SLR	80	0	6	96	384	4
TAP	81	352	3
HLD	81	352	5	384
TAP	83	256	2
HLD	83	352	2	384
TAP	83	352	4
TAP	85	256	3
TAP	85	256	4
HLD	85	352	3	768
TAP	85	352	4
STR	87	352	5
SCR	87	352	5	96	320	2
BRK	89	192	1
BRK	89	192	6
TAP	90	0	0
TAP	90	96	0
TAP	90	192	1
TAP	90	288	1
TAP	91	0	2
TAP	91	96	2
TAP	91	192	3
TAP	91	288	3
TAP	92	0	4
TAP	92	96	4
TAP	92	192	5
TAP	92	288	5
TAP	93	0	6
TAP	93	96	6
TAP	93	192	0
TAP	93	192	7
TAP	94	0	0
TAP	94	0	7
TAP	94	96	0
TAP	94	96	7
TAP	94	192	1
TAP	94	192	6
TAP	94	288	1
TAP	94	288	6
TAP	95	0	2
TAP	95	0	5
TAP	95	96	2
TAP	95	96	5
BRK	95	192	3
BRK	95	192	4
TAP	96	0	2
TAP	96	96	2
TAP	96	192	1
TAP	96	192	3
TAP	96	288	1
TAP	96	288	3
TAP	97	0	0
TAP	97	96	0
TAP	97	192	1
TAP	97	192	7
TAP	98	0	5
TAP	98	96	5
TAP	98	192	4
TAP	98	192	6
TAP	98	288	4
TAP	98	288	6
TAP	99	0	7
TAP	99	96	7
TAP	99	192	0
TAP	99	192	6
TAP	100	0	0
TAP	100	0	1
TAP	100	96	0
TAP	100	96	1
TAP	100	192	0
TAP	100	192	1
TAP	101	0	6
TAP	101	0	7
TAP	101	96	6
TAP	101	96	7
TAP	101	192	6
TAP	101	192	7
STR	102	0	4
SCL	102	0	4	96	288	1
STR	102	0	5
SCR	102	0	5	96	288	0
TAP	103	192	2
TAP	103	192	7
TAP	104	0	6
TAP	104	96	6
TAP	104	192	5
TAP	104	192	7
TAP	104	288	5
TAP	104	288	7
TAP	105	0	4
TAP	105	96	4
TAP	105	192	3
TAP	105	192	5
TAP	106	0	1
TAP	106	96	1
TAP	106	192	0
TAP	106	192	2
TAP	106	288	0
TAP	106	288	2
TAP	107	0	3
TAP	107	96	3
TAP	107	192	2
TAP	107	192	4
TAP	108	0	4
TAP	108	0	5
TAP	108	96	4
TAP	108	96	5
TAP	108	192	2
TAP	108	192	3
TAP	108	288	2
TAP	108	288	3
TAP	109	0	3
TAP	109	0	4
TAP	109	96	2
TAP	109	96	5
BRK	109	192	1
BRK	109	192	6
TAP	110	0	1
TAP	110	96	1
TAP	110	192	2
TAP	110	192	3
TAP	110	288	2
TAP	110	288	3
TAP	111	0	1
TAP	111	96	0
TAP	111	192	0
TAP	111	192	7
TAP	112	0	5
TAP	112	96	5
TAP	112	192	4
TAP	112	192	5
TAP	112	288	4
TAP	112	288	5
TAP	113	0	6
TAP	113	96	7
TAP	113	192	0
TAP	113	192	7
TAP	114	0	1
TAP	114	96	1
TAP	114	192	0
TAP	114	192	1
TAP	114	288	0
TAP	114	288	1
TAP	115	0	2
TAP	115	96	3
TAP	115	192	1
TAP	115	192	4
TAP	116	0	3
TAP	116	0	5
TAP	116	160	3
TAP	116	160	4
HLD	116	288	2	160
HLD	116	288	4	160
TAP	117	192	1
TAP	117	192	6
TAP	118	0	2
TAP	118	0	4
TAP	118	160	3
TAP	118	160	5
TAP	118	288	2
TAP	118	288	5
BRK	119	0	2
BRK	119	0	5

T_REC_TAP	342
T_REC_BRK	8
T_REC_XTP	0
T_REC_HLD	22
T_REC_XHO	0
T_REC_STR	22
T_REC_BST	0
T_REC_XST	0
T_REC_TTP	0
T_REC_THO	0
T_REC_SLD	22
T_REC_ALL	416
T_NUM_TAP	364
T_NUM_BRK	8
T_NUM_HLD	22
T_NUM_SLD	22
T_NUM_ALL	416
T_JUDGE_TAP	372
T_JUDGE_HLD	112
T_JUDGE_SLD	22
T_JUDGE_ALL	506
TTM_EACHPAIRS	116
TTM_SCR_TAP	182000
TTM_SCR_BRK	20800
TTM_SCR_HLD	22000
TTM_SCR_SLD	33000
TTM_SCR_ALL	257800
TTM_SCR_S	249300
TTM_SCR_SS	257000
TTM_RAT_ACV	10031

