VERSION	0.00.00	1.03.00
FES_MODE	0
BPM_DEF	210.000	210.000	210.000	210.000
MET_DEF	4	4
RESOLUTION	384
CLK_DEF	384
COMPATIBLE_CODE	MA2

BPM	0	0	210.000

TAP	2	0	0
TAP	2	192	0
TAP	3	0	0
TAP	4	0	1
TAP	4	192	1
TAP	5	0	1
TAP	6	0	2
TAP	6	192	2
TAP	7	0	2
HLD	8	0	3	384
HLD	8	0	4	384
TAP	10	0	4
TAP	10	192	4
TAP	11	0	4
TAP	11	96	4
TAP	11	192	4
TAP	12	0	5
TAP	12	192	5
TAP	13	0	5
TAP	13	96	5
TAP	13	192	5
TAP	14	0	6
TAP	14	192	6
TAP	15	0	7
TAP	15	192	7
STR	16	0	7
SI_	16	0	7	96	288	4
TAP	18	0	3
TAP	18	192	3
TAP	19	0	3
TAP	19	96	3
TAP	19	192	3
TAP	20	0	2
TAP	20	192	2
TAP	21	0	2
TAP	21	96	2
TAP	21	192	2
TAP	22	0	1
TAP	22	192	1
TAP	23	0	0
TAP	23	192	0
STR	24	0	0
SI_	24	0	0	96	288	3
TAP	26	0	4
TAP	26	0	5
TAP	26	192	4
TAP	26	192	5
TAP	27	0	3
TAP	27	0	6
TAP	28	0	2
TAP	28	0	3
TAP	28	192	2
TAP	28	192	3
TAP	29	0	1
TAP	29	0	4
TAP	30	0	2
TAP	30	192	2
TAP	31	0	3
TAP	31	192	3
TAP	32	0	4
TAP	32	96	4
TAP	32	192	4
TAP	33	0	3
TAP	33	0	5
TAP	34	0	6
TAP	34	0	7
TAP	34	192	6
TAP	34	192	7
TAP	35	0	0
TAP	35	0	5
TAP	36	0	0
TAP	36	0	1
TAP	36	192	0
TAP	36	192	1
TAP	37	0	2
TAP	37	0	7
TAP	38	0	1
TAP	38	192	1
TAP	39	0	0
TAP	39	192	0
HLD	40	0	7	384
TAP	42	0	0
TAP	42	96	0
TAP	42	192	0
TAP	43	0	1
TAP	43	96	1
TAP	43	192	1
TAP	44	0	2
TAP	44	0	3
TAP	44	192	2
TAP	44	192	3
TAP	45	0	1
TAP	45	0	4
TAP	46	0	3
TAP	46	96	3
TAP	46	192	3
TAP	47	0	4
TAP	47	96	4
TAP	47	192	4
HLD	48	0	3	384
HLD	48	0	4	384
TAP	50	0	4
TAP	50	96	4
TAP	50	192	4
TAP	51	0	5
TAP	51	96	5
TAP	51	192	5
TAP	52	0	6
TAP	52	0	7
TAP	52	192	6
TAP	52	192	7
TAP	53	0	0
TAP	53	0	5
TAP	54	0	0
TAP	54	96	7
TAP	54	192	0
BRK	55	0	0
BRK	55	0	7
STR	56	0	0
SI_	56	0	0	96	288	4
STR	58	0	7
SI_	58	0	7	96	288	3
STR	60	0	1
SI_	60	0	1	96	288	4
STR	62	0	6
SI_	62	0	6	96	288	3
TAP	64	0	2
TAP	64	192	2
TAP	65	0	3
TAP	65	192	3
TAP	66	0	4
TAP	66	192	4
TAP	67	0	3
TAP	67	0	5
TAP	68	0	5
TAP	68	192	5
TAP	69	0	4
TAP	69	192	4
TAP	70	0	3
TAP	70	192	3
TAP	71	0	2
TAP	71	0	4
TAP	72	0	1
TAP	72	192	1
TAP	73	0	0
TAP	73	192	0
TAP	74	0	7
TAP	74	192	7
TAP	75	0	0
TAP	75	0	6
TAP	76	0	6
TAP	76	192	6
TAP	77	0	7
TAP	77	192	7
HLD	78	0	0	384
HLD	80	0	7	384
TAP	81	352	0
TAP	81	352	7
TAP	83	352	0
TAP	83	352	1
TAP	85	352	6
TAP	85	352	7
STR	87	352	0
SI_	87	352	0	96	320	3
STR	87	352	7
SI_	87	352	7	96	320	4
TAP	90	0	2
TAP	90	96	2
TAP	90	192	2
TAP	91	0	1
TAP	91	96	1
TAP	91	192	1
TAP	92	0	0
TAP	92	96	0
TAP	92	192	7
TAP	92	288	7
TAP	93	0	0
TAP	93	0	7
TAP	94	0	0
TAP	94	0	7
TAP	94	192	0
TAP	94	192	7
BRK	95	0	1
BRK	95	0	6
TAP	96	0	7
TAP	96	96	7
TAP	96	192	7
TAP	97	0	6
TAP	97	96	6
TAP	97	192	6
TAP	98	0	5
TAP	98	96	5
TAP	98	192	5
TAP	99	0	4
TAP	99	0	5
TAP	100	0	3
TAP	100	96	3
TAP	100	192	3
TAP	101	0	2
TAP	101	96	2
TAP	101	192	2
HLD	102	0	0	384
HLD	102	0	1	384
TAP	104	0	0
TAP	104	96	0
TAP	104	192	0
TAP	105	0	1
TAP	105	96	1
TAP	105	192	1
TAP	106	0	2
TAP	106	96	2
TAP	106	192	2
TAP	107	0	2
TAP	107	0	3
TAP	108	0	4
TAP	108	96	4
TAP	108	192	3
TAP	108	288	3
TAP	109	0	3
TAP	109	0	4
STR	110	0	4
SI_	110	0	4	96	288	7
STR	112	0	3
SI_	112	0	3	96	288	0
TAP	114	0	7
TAP	114	96	7
TAP	114	192	7
TAP	115	0	0
TAP	115	96	0
TAP	115	192	0
STR	116	0	7
SI_	116	0	7	96	288	3
STR	118	0	0
SI_	118	0	0	96	288	4

T_REC_TAP	197
T_REC_BRK	4
T_REC_XTP	0
T_REC_HLD	9
T_REC_XHO	0
T_REC_STR	12
T_REC_BST	0
T_REC_XST	0
T_REC_TTP	0
T_REC_THO	0
T_REC_SLD	12
T_REC_ALL	234
T_NUM_TAP	209
T_NUM_BRK	4
T_NUM_HLD	9
T_NUM_SLD	12
T_NUM_ALL	234
T_JUDGE_TAP	213
T_JUDGE_HLD	72
T_JUDGE_SLD	12
T_JUDGE_ALL	297
TTM_EACHPAIRS	37
TTM_SCR_TAP	104500
TTM_SCR_BRK	10400
TTM_SCR_HLD	9000
TTM_SCR_SLD	18000
TTM_SCR_ALL	141900
TTM_SCR_S	137300
TTM_SCR_SS	141500
TTM_RAT_ACV	10028

