VERSION	0.00.00	1.03.00
FES_MODE	0
BPM_DEF	168.000	168.000	168.000	168.000
MET_DEF	4	4
RESOLUTION	384
CLK_DEF	384
COMPATIBLE_CODE	MA2

BPM	0	0	168.000

TAP	1	192	0
TAP	1	216	7
TAP	1	240	0
TAP	1	264	7
BRK	1	288	1
BRK	1	288	6
TAP	2	0	3
TAP	2	48	4
TAP	2	96	2
TAP	2	144	2
TAP	2	192	4
TAP	2	240	3
TAP	2	288	5
TAP	2	336	5
STR	3	0	3
SI_	3	0	3	96	48	0
TAP	3	48	4
TAP	3	96	5
TAP	3	144	6
STR	3	192	7
SI_	3	192	7	96	48	4
TAP	3	240	0
TAP	3	288	1
TAP	3	336	2
TAP	4	0	2
TAP	4	48	3
TAP	4	96	1
TAP	4	144	1
TAP	4	192	5
TAP	4	240	4
TAP	4	288	6
TAP	4	336	6
TAP	5	0	2
TAP	5	48	3
TAP	5	96	0
TAP	5	144	0
TAP	5	192	5
TAP	5	240	4
TAP	5	288	7
TAP	5	336	7
TAP	6	0	2
TAP	6	48	3
TAP	6	96	0
TAP	6	96	1
TAP	6	144	2
TAP	6	192	5
TAP	6	240	4
TAP	6	288	6
TAP	6	288	7
TAP	6	336	5
TAP	7	0	2
TAP	7	48	3
TAP	7	96	0
TAP	7	96	1
TAP	7	144	2
TAP	7	192	5
TAP	7	240	4
TAP	7	288	6
TAP	7	288	7
TAP	7	336	5
TAP	8	0	1
TAP	8	0	3
TAP	8	48	2
TAP	8	96	4
TAP	8	96	6
TAP	8	144	5
TAP	8	192	1
TAP	8	192	4
TAP	8	240	2
STR	8	288	3
SCL	8	288	3	96	216	6
SUR	8	288	3	96	216	6
TAP	8	312	4
TAP	8	336	3
TAP	8	360	4
BRK	9	288	0
BRK	9	288	7
TAP	10	0	2
TAP	10	48	3
HLD	10	96	1	72
TAP	10	96	4
TAP	10	168	0
TAP	10	216	0
TAP	10	264	1
TAP	10	288	0
TAP	10	336	2
TAP	10	336	7
TAP	11	0	5
TAP	11	48	4
TAP	11	96	3
HLD	11	96	6	72
TAP	11	168	7
TAP	11	216	7
TAP	11	264	6
TAP	11	288	7
TAP	11	336	0
TAP	11	336	5
TAP	12	0	1
TAP	12	48	2
TAP	12	48	6
STR	12	96	3
SLR	12	96	3	96	96	1
STR	12	96	7
SLL	12	96	7	96	96	1
TAP	13	0	1
TAP	13	24	3
TAP	13	48	2
TAP	13	96	6
TAP	13	120	4
TAP	13	144	5
STR	13	192	0
SI_	13	192	0	96	48	3
SI_	13	192	0	96	48	5
TAP	13	216	7
TAP	13	240	0
TAP	14	0	5
TAP	14	48	4
TAP	14	96	3
HLD	14	96	6	72
TAP	14	168	7
TAP	14	216	7
TAP	14	264	6
TAP	14	288	7
TAP	14	336	0
TAP	14	336	5
TAP	15	0	2
TAP	15	48	3
HLD	15	96	1	72
TAP	15	96	4
TAP	15	168	0
TAP	15	216	0
TAP	15	264	1
TAP	15	288	0
TAP	15	336	2
TAP	15	336	7
STR	16	0	1
SV_	16	0	1	96	48	3
STR	16	0	6
SCR	16	0	6	96	48	1
STR	16	192	1
SV_	16	192	1	96	48	3
STR	16	192	6
SCR	16	192	6	96	48	1
TAP	17	0	2
TAP	17	32	3
TAP	17	64	2
TAP	17	96	5
TAP	17	128	4
TAP	17	160	5
TAP	17	192	3
TAP	17	224	4
TAP	17	256	3
BRK	17	288	1
BRK	17	288	6
STR	18	0	4
SLR	18	0	4	96	96	1
STR	18	0	6
SLL	18	0	6	96	96	1
TAP	18	288	0
TAP	18	336	7
TAP	19	0	4
TAP	19	0	6
TAP	19	48	7
TAP	19	96	4
STR	19	96	6
SV_	19	96	6	96	48	1
STR	19	192	5
SCL	19	192	5	96	48	2
STR	20	0	0
SI_	20	0	0	96	48	4
STR	20	0	6
SI_	20	0	6	96	48	2
TAP	20	192	1
TAP	20	192	5
TAP	20	240	6
TAP	20	288	7
TAP	20	336	0
TAP	21	0	1
TAP	21	0	3
TAP	21	48	0
STR	21	96	1
SV_	21	96	1	96	48	6
TAP	21	96	3
STR	21	192	2
SCR	21	192	2	96	48	5
STR	21	288	0
SF_	21	288	0	96	48	4
TAP	22	96	6
TAP	22	120	4
TAP	22	144	6
TAP	22	168	4
TAP	22	192	5
TAP	22	216	3
TAP	22	240	5
TAP	22	264	3
TAP	22	288	4
TAP	22	312	2
TAP	22	336	4
TAP	22	360	2
TAP	23	0	3
TAP	23	24	1
TAP	23	48	3
TAP	23	72	1
TAP	23	96	2
TAP	23	120	1
TAP	23	144	2
TAP	23	168	1
STR	23	192	2
SCR	23	192	2	96	48	5
SUR	23	192	2	96	48	6
TAP	24	0	5
TAP	24	24	4
TAP	24	48	5
TAP	24	72	4
TAP	24	96	5
TAP	24	144	0
TAP	24	144	7
TAP	24	192	2
TAP	24	216	3
TAP	24	240	2
TAP	24	264	3
TAP	24	288	2
TAP	24	336	0
TAP	24	336	7
STR	25	0	0
SCR	25	0	0	96	48	3
STR	25	0	6
SCL	25	0	6	96	48	3
STR	25	96	0
SV_	25	96	0	96	48	3
STR	25	96	6
SV_	25	96	6	96	48	3
STR	25	192	0
SCR	25	192	0	96	48	3
STR	25	192	6
SCL	25	192	6	96	48	3
TAP	25	288	0
TAP	25	288	6
TAP	26	0	4
TAP	26	48	5
TAP	26	96	6
STR	26	144	6
SCR	26	144	6	96	48	1
STR	26	192	2
SCL	26	192	2	96	48	7
TAP	27	0	4
TAP	27	0	6
TAP	27	48	7
TAP	27	96	4
STR	27	96	6
SV_	27	96	6	96	48	1
STR	27	192	5
SCL	27	192	5	96	48	2
TAP	28	0	0
TAP	28	48	0
TAP	28	96	1
TAP	28	144	2
TAP	28	192	1
STR	28	192	3
SCR	28	192	3	96	336	1
BRK	28	240	2
BRK	28	288	2
BRK	28	336	2
BRK	29	0	2
BRK	29	48	2
BRK	29	96	2
BRK	29	144	2
BRK	29	192	2
BRK	29	240	2
BRK	29	288	0
TAP	30	0	6
TAP	30	24	4
TAP	30	48	6
TAP	30	72	4
TAP	30	96	6
TAP	30	144	0
TAP	30	144	2
TAP	30	192	3
TAP	30	192	4
TAP	30	240	2
TAP	30	240	5
TAP	30	288	1
TAP	30	312	3
TAP	30	336	1
TAP	30	360	3
TAP	31	0	1
TAP	31	48	5
TAP	31	48	7
TAP	31	96	3
TAP	31	96	4
STR	31	144	2
SLL	31	144	2	96	96	4
STR	31	144	5
SLR	31	144	5	96	96	3
TAP	32	0	6
TAP	32	24	3
TAP	32	48	6
TAP	32	72	3
TAP	32	96	5
TAP	32	120	1
TAP	32	144	5
TAP	32	168	1
TAP	32	192	7
TAP	32	216	2
TAP	32	240	7
TAP	32	264	2
TAP	32	288	7
TAP	32	336	1
TAP	32	336	6
TAP	33	0	3
TAP	33	0	4
TAP	33	48	2
TAP	33	48	5
TAP	33	96	1
TAP	33	96	6
TAP	33	144	0
TAP	33	144	7
STR	33	192	0
SI_	33	192	0	96	48	4
STR	33	192	7
SI_	33	192	7	96	48	3
TAP	33	240	1
TAP	33	240	6
STR	34	0	0
SI_	34	0	0	96	48	3
STR	34	0	3
SI_	34	0	3	96	48	0
STR	34	96	0
SCL	34	96	0	96	72	5
TAP	34	288	0
STR	35	0	3
SI_	35	0	3	96	48	7
STR	35	0	7
SI_	35	0	7	96	48	3
STR	35	96	7
SCR	35	96	7	96	72	2
STR	35	288	7
SI_	35	288	7	96	48	3
TAP	35	336	6
TAP	36	0	5
STR	36	96	0
SI_	36	96	0	96	48	4
TAP	36	144	1
TAP	36	192	2
STR	36	288	7
SI_	36	288	7	96	48	3
TAP	36	336	6
STR	37	0	5
SCR	37	0	5	96	96	0
TAP	37	240	1
TAP	37	288	1
TAP	37	336	2
HLD	38	0	2	64
TAP	38	64	3
TAP	38	144	5
TAP	38	144	7
TAP	38	240	0
TAP	38	240	1
TAP	38	288	1
TAP	38	336	2
HLD	39	0	2	64
TAP	39	64	3
TAP	39	144	0
TAP	39	144	5
TAP	39	240	0
TAP	39	240	1
TAP	39	288	1
TAP	39	336	2
HLD	40	0	2	64
TAP	40	64	3
TAP	40	144	1
TAP	40	144	5
STR	40	192	3
SI_	40	192	3	96	48	0
STR	40	192	4
SI_	40	192	4	96	48	7
STR	40	288	3
SXR	40	288	3	96	96	3
STR	40	288	4
SXL	40	288	4	96	96	4
TAP	41	192	4
TAP	41	192	5
STR	41	288	6
SXR	41	288	6	96	192	3
STR	41	288	7
SI_	41	288	7	96	48	1
TAP	42	0	6
TAP	42	0	7
TAP	42	96	2
TAP	42	192	0
TAP	42	240	1
STR	42	288	0
SI_	42	288	0	96	48	6
STR	42	288	1
SXL	42	288	1	96	192	4
TAP	43	0	0
TAP	43	0	1
TAP	43	96	5
TAP	43	192	7
TAP	43	240	6
STR	43	288	6
SI_	43	288	6	96	48	4
STR	43	288	7
SI_	43	288	7	96	48	3
TAP	44	0	6
TAP	44	0	7
STR	44	96	6
SI_	44	96	6	96	48	2
STR	44	96	7
SI_	44	96	7	96	48	1
TAP	44	192	6
TAP	44	192	7
TAP	44	288	6
STR	44	288	7
SCR	44	288	7	96	48	2
STR	45	0	7
SCL	45	0	7	96	48	4
STR	45	96	7
SF_	45	96	7	96	48	3
TAP	45	192	7
TAP	45	288	1
TAP	45	288	5
TAP	46	0	0
STR	46	0	1
SCR	46	0	1	96	48	4
TAP	46	96	6
HLD	46	144	5	96
TAP	46	240	7
TAP	46	288	0
TAP	46	336	1
TAP	47	0	0
STR	47	0	2
SCR	47	0	2	96	48	5
TAP	47	96	7
HLD	47	144	6	96
TAP	47	240	0
TAP	47	288	1
TAP	47	336	2
TAP	48	0	1
STR	48	0	3
SCR	48	0	3	96	48	6
TAP	48	96	0
HLD	48	144	7	96
TAP	48	240	6
TAP	48	288	0
TAP	48	288	5
TAP	48	336	1
TAP	48	336	4
STR	49	0	2
SCR	49	0	2	96	48	5
TAP	49	0	3
TAP	49	192	7
TAP	49	216	0
TAP	49	240	7
TAP	49	264	0
BST	49	288	1
SXL	49	288	1	96	192	4
BRK	49	288	6
TAP	50	0	0
TAP	50	0	1
TAP	50	96	5
TAP	50	192	7
TAP	50	240	6
STR	50	288	6
SXR	50	288	6	96	192	3
STR	50	288	7
SI_	50	288	7	96	48	1
TAP	51	0	6
TAP	51	0	7
TAP	51	96	2
TAP	51	192	0
TAP	51	240	1
STR	51	288	0
SI_	51	288	0	96	48	4
STR	51	288	1
SI_	51	288	1	96	48	3
TAP	52	0	0
TAP	52	0	1
STR	52	96	0
SI_	52	96	0	96	48	6
STR	52	96	1
SI_	52	96	1	96	48	5
TAP	52	192	0
TAP	52	192	1
STR	52	288	0
SCL	52	288	0	96	48	5
TAP	52	288	1
STR	53	0	0
SCR	53	0	0	96	48	3
STR	53	96	0
SF_	53	96	0	96	48	4
TAP	53	192	0
TAP	53	288	2
TAP	53	288	6
STR	54	0	6
SCL	54	0	6	96	48	3
TAP	54	0	7
TAP	54	96	1
HLD	54	144	2	96
TAP	54	240	0
STR	54	288	7
SI_	54	288	7	96	48	3
BST	55	0	1
SI_	55	0	1	96	48	5
BRK	55	0	7
BRK	55	96	1
BST	55	96	6
SCR	55	96	6	96	96	3
BRK	55	192	3
BRK	55	192	6
TAP	55	336	1
STR	56	0	1
SI_	56	0	1	96	96	4
STR	56	96	4
SI_	56	96	4	96	96	7
STR	56	192	7
SI_	56	192	7	96	96	2
TAP	56	288	2
STR	57	0	6
SI_	57	0	6	96	96	3
STR	57	96	3
SI_	57	96	3	96	96	0
STR	57	192	0
SI_	57	192	0	96	96	5
STR	57	288	5
SCL	57	288	5	96	192	7
SUL	57	288	5	96	192	6
TAP	58	288	0
TAP	58	288	7
BST	59	0	1
SI_	59	0	1	96	16	3
BST	59	0	6
SI_	59	0	6	96	16	4
BRK	59	72	1
BRK	59	72	6
BRK	59	144	0
BRK	59	144	7
BRK	59	192	1
BRK	59	192	6
TAP	60	0	3
TAP	60	0	4
STR	60	192	2
SUR	60	192	2	96	72	6
STR	60	192	5
SUL	60	192	5	96	72	1
STR	61	48	0
SCR	61	48	0	96	72	2
STR	61	48	7
SCL	61	48	7	96	72	5
TAP	62	0	1
TAP	62	0	6
TAP	62	192	0
TAP	62	192	7
TAP	62	288	0
STR	62	288	7
SI_	62	288	7	96	48	3
STR	63	0	7
SCL	63	0	7	96	192	0
HLD	64	0	6	96
HLD	64	0	7	96
HLD	64	192	0	96
HLD	64	192	1	96
HLD	65	0	4	96
HLD	65	0	5	96
HLD	65	192	2	96
HLD	65	192	3	96
TAP	66	0	3
TAP	66	0	4
STR	66	96	2
SI_	66	96	2	96	96	5
STR	66	96	5
SI_	66	96	5	96	96	2
STR	67	0	0
SCR	67	0	0	96	48	2
STR	67	0	7
SCL	67	0	7	96	48	5
TAP	67	192	3
TAP	67	192	4
STR	67	288	1
SXL	67	288	1	96	192	4
STR	67	288	5
SI_	67	288	5	96	48	7
TAP	68	0	1
TAP	68	0	5
TAP	68	96	0
TAP	68	192	7
TAP	68	240	6
STR	68	288	2
SI_	68	288	2	96	48	0
STR	68	288	6
SXR	68	288	6	96	192	3
TAP	69	0	2
TAP	69	0	6
TAP	69	96	7
TAP	69	192	0
TAP	69	240	1
STR	69	288	0
SI_	69	288	0	96	48	4
STR	69	288	1
SCR	69	288	1	96	48	4
TAP	70	0	0
TAP	70	0	1
STR	70	96	0
SCL	70	96	0	96	48	5
STR	70	96	1
SI_	70	96	1	96	48	5
TAP	70	192	0
TAP	70	192	1
STR	70	288	0
SI_	70	288	0	96	48	3
SCR	70	288	0	96	48	3
TAP	70	288	1
STR	71	0	0
SI_	71	0	0	96	48	5
SCL	71	0	0	96	48	5
STR	71	96	0
SF_	71	96	0	96	48	4
TAP	71	192	0
TAP	71	288	2
TAP	71	288	6
STR	72	0	6
SCL	72	0	6	96	48	3
TAP	72	0	7
TAP	72	96	1
HLD	72	144	2	96
TAP	72	240	0
TAP	72	288	7
TAP	72	336	6
STR	73	0	5
SCL	73	0	5	96	48	2
TAP	73	0	7
TAP	73	96	0
HLD	73	144	1	96
TAP	73	240	7
TAP	73	288	6
TAP	73	336	5
STR	74	0	4
SCL	74	0	4	96	48	1
TAP	74	0	6
TAP	74	96	7
HLD	74	144	6	96
TAP	74	240	3
TAP	74	288	2
TAP	74	288	6
TAP	74	336	1
TAP	74	336	5
STR	75	0	0
SI_	75	0	0	96	48	3
STR	75	0	4
SI_	75	0	4	96	48	7
TAP	75	96	0
TAP	75	96	4
BRK	75	192	1
BRK	75	192	5
STR	75	288	2
SI_	75	288	2	96	48	0
STR	75	288	6
SXR	75	288	6	96	192	3
TAP	76	0	2
TAP	76	0	6
TAP	76	96	7
TAP	76	192	0
TAP	76	240	1
STR	76	288	1
SXL	76	288	1	96	192	4
STR	76	288	5
SI_	76	288	5	96	48	7
TAP	77	0	1
TAP	77	0	5
TAP	77	96	0
TAP	77	192	7
TAP	77	240	6
STR	77	288	6
SCL	77	288	6	96	48	3
STR	77	288	7
SI_	77	288	7	96	48	3
TAP	78	0	6
TAP	78	0	7
STR	78	96	6
SI_	78	96	6	96	48	2
STR	78	96	7
SCR	78	96	7	96	48	2
TAP	78	192	6
TAP	78	192	7
TAP	78	288	6
STR	78	288	7
SI_	78	288	7	96	48	4
SCL	78	288	7	96	48	4
STR	79	0	7
SI_	79	0	7	96	48	2
SCR	79	0	7	96	48	2
STR	79	96	7
SF_	79	96	7	96	48	3
TAP	79	192	7
TAP	79	288	1
TAP	79	288	5
TAP	80	0	0
STR	80	0	1
SCR	80	0	1	96	48	4
TAP	80	96	6
HLD	80	144	5	96
TAP	80	240	7
STR	80	288	0
SI_	80	288	0	96	48	4
BRK	81	0	0
BST	81	0	6
SI_	81	0	6	96	48	2
BST	81	96	1
SCL	81	96	1	96	96	4
BRK	81	96	6
BRK	81	192	1
BRK	81	192	4
TAP	81	336	6
STR	82	0	6
SCL	82	0	6	96	96	3
STR	82	96	3
SCL	82	96	3	96	96	0
STR	82	192	0
SCL	82	192	0	96	96	5
TAP	82	288	5
STR	83	0	1
SCR	83	0	1	96	96	4
STR	83	96	4
SCR	83	96	4	96	96	7
STR	83	192	7
SCR	83	192	7	96	96	2
STR	83	288	2
SLR	83	288	2	96	192	0
SLR	83	288	2	96	192	7
TAP	84	288	0
TAP	84	288	7
BST	85	0	1
SI_	85	0	1	96	16	3
BST	85	0	6
SI_	85	0	6	96	16	4
BRK	85	72	1
BRK	85	72	6
BRK	85	144	0
BRK	85	144	7
BRK	85	192	1
BRK	85	192	6
TAP	86	0	6
TAP	86	48	7
TAP	86	96	0
HLD	86	96	5	72
TAP	86	168	4
TAP	86	216	4
TAP	86	264	5
TAP	86	288	4
TAP	86	336	3
TAP	86	336	6
STR	87	0	0
SI_	87	0	0	96	48	4
STR	87	0	7
SI_	87	0	7	96	48	5
TAP	87	96	0
TAP	87	96	7
STR	87	192	0
SI_	87	192	0	96	48	2
STR	87	192	7
SI_	87	192	7	96	48	3
TAP	87	288	0
TAP	87	288	7
TAP	88	0	0
TAP	88	0	5
TAP	88	48	6
TAP	88	72	7
TAP	88	120	5
TAP	88	144	4
TAP	88	192	2
TAP	88	192	7
TAP	88	240	1
TAP	88	264	0
TAP	88	312	2
TAP	88	336	3
TAP	89	0	6
TAP	89	24	4
TAP	89	48	5
TAP	89	96	1
TAP	89	120	3
TAP	89	144	2
TAP	89	192	4
TAP	89	216	3
TAP	89	240	4
BRK	89	288	1
BRK	89	288	6
TAP	90	0	1
TAP	90	48	0
HLD	90	96	2	72
TAP	90	96	7
TAP	90	168	3
TAP	90	216	3
TAP	90	264	2
TAP	90	288	3
TAP	90	336	1
TAP	90	336	4
TAP	91	0	6
TAP	91	48	7
TAP	91	96	0
HLD	91	96	5	72
TAP	91	168	4
TAP	91	216	4
TAP	91	264	5
TAP	91	288	4
TAP	91	336	3
TAP	91	336	6
STR	92	0	0
SCL	92	0	0	96	56	4
SCR	92	0	0	96	56	4
TAP	92	96	0
STR	92	192	7
SCL	92	192	7	96	56	3
SCR	92	192	7	96	56	3
TAP	92	288	7
STR	93	0	2
SSR	93	0	2	96	96	6
STR	93	96	6
SSR	93	96	6	96	96	2
TAP	93	192	2
BRK	93	288	7
TAP	94	0	6
TAP	94	32	6
TAP	94	64	6
TAP	94	96	1
TAP	94	128	1
TAP	94	160	1
TAP	94	192	7
TAP	94	224	7
TAP	94	256	7
STR	94	288	0
SI_	94	288	0	96	48	4
SV_	94	288	0	96	48	2
TAP	94	320	0
TAP	94	352	0
STR	95	96	0
SV_	95	96	0	96	48	3
SV_	95	96	0	96	48	5
TAP	95	192	0
STR	95	288	0
SI_	95	288	0	96	48	4
STR	95	288	1
SI_	95	288	1	96	48	7
TAP	96	0	0
STR	96	0	1
SXR	96	0	1	96	288	6
TAP	97	96	1
TAP	97	96	4
BST	97	192	1
SXR	97	192	1	96	1440	4
BST	97	192	4
SCR	97	192	4	96	1440	4

T_REC_TAP	466
T_REC_BRK	42
T_REC_XTP	0
T_REC_HLD	26
T_REC_XHO	0
T_REC_STR	141
T_REC_BST	11
T_REC_XST	0
T_REC_TTP	0
T_REC_THO	0
T_REC_SLD	165
T_REC_ALL	851
T_NUM_TAP	607
T_NUM_BRK	53
T_NUM_HLD	26
T_NUM_SLD	165
T_NUM_ALL	851
T_JUDGE_TAP	660
T_JUDGE_HLD	52
T_JUDGE_SLD	165
T_JUDGE_ALL	877
TTM_EACHPAIRS	164
TTM_SCR_TAP	303500
TTM_SCR_BRK	137800
TTM_SCR_HLD	26000
TTM_SCR_SLD	247500
TTM_SCR_ALL	714800
TTM_SCR_S	688250
TTM_SCR_SS	709500
TTM_RAT_ACV	10074

