VERSION	0.00.00	1.03.00
FES_MODE	0
BPM_DEF	168.000	168.000	168.000	168.000
MET_DEF	4	4
RESOLUTION	384
CLK_DEF	384
COMPATIBLE_CODE	MA2

BPM	0	0	168.000

HLD	1	0	5	192
STR	1	192	4
SI_	1	192	4	96	48	0
HLD	2	0	1	96
HLD	2	0	7	96
HLD	2	192	4	96
HLD	2	192	5	96
HLD	3	0	1	96
HLD	3	0	3	96
HLD	3	192	5	96
HLD	3	192	7	96
HLD	4	0	2	96
HLD	4	0	3	96
HLD	4	192	5	96
HLD	4	192	6	96
HLD	5	0	0	96
HLD	5	0	2	96
HLD	5	192	4	96
HLD	5	192	6	96
TAP	6	0	2
TAP	6	0	3
TAP	6	96	1
TAP	6	192	4
TAP	6	192	6
TAP	6	288	5
TAP	7	0	1
TAP	7	0	3
TAP	7	96	2
TAP	7	192	4
TAP	7	192	5
TAP	7	288	6
TAP	8	0	0
TAP	8	48	0
TAP	8	96	7
TAP	8	144	7
TAP	8	192	1
TAP	8	192	6
TAP	8	240	1
TAP	8	240	6
TAP	8	288	1
TAP	8	288	6
TAP	8	336	1
TAP	8	336	6
TAP	9	0	0
HLD	9	0	7	192
TAP	9	192	0
BRK	9	288	3
BRK	9	288	4
TAP	10	0	5
TAP	10	48	4
TAP	10	96	3
TAP	10	96	6
TAP	10	192	0
TAP	10	192	7
TAP	10	288	2
TAP	10	288	3
TAP	11	0	2
TAP	11	48	3
TAP	11	96	1
TAP	11	96	4
TAP	11	192	0
TAP	11	192	7
TAP	11	288	4
TAP	11	288	5
HLD	12	0	6	72
HLD	12	72	5	72
TAP	12	144	4
HLD	12	192	1	72
HLD	12	264	2	72
TAP	12	336	3
TAP	13	0	4
TAP	13	48	4
TAP	13	96	3
TAP	13	144	3
TAP	13	192	2
TAP	13	192	4
BRK	13	288	6
BRK	13	288	7
TAP	14	0	2
TAP	14	48	3
TAP	14	96	1
TAP	14	96	4
TAP	14	192	0
TAP	14	192	7
TAP	14	288	4
TAP	14	288	6
TAP	15	0	5
TAP	15	48	4
TAP	15	96	3
TAP	15	96	6
TAP	15	192	0
TAP	15	192	7
TAP	15	288	1
TAP	15	288	3
HLD	16	0	1	72
HLD	16	72	2	72
TAP	16	144	3
HLD	16	192	6	72
HLD	16	264	5	72
TAP	16	336	4
TAP	17	0	3
TAP	17	0	4
TAP	17	96	0
TAP	17	96	1
TAP	17	192	6
TAP	17	192	7
BRK	17	288	2
BRK	17	288	5
HLD	18	0	2	1152
TAP	18	0	3
TAP	18	96	4
TAP	18	192	1
TAP	18	240	1
TAP	18	288	1
TAP	19	0	3
TAP	19	96	0
TAP	19	192	7
TAP	19	240	7
TAP	19	288	7
TAP	20	0	3
TAP	20	96	6
TAP	20	192	4
TAP	20	240	4
TAP	20	288	4
STR	21	0	3
SXL	21	0	3	96	192	3
SXR	21	0	3	96	192	3
TAP	22	0	4
HLD	22	0	5	1344
TAP	22	96	3
TAP	22	192	6
TAP	22	240	6
TAP	22	288	6
TAP	23	0	1
TAP	23	96	7
TAP	23	144	7
TAP	23	192	7
BRK	23	288	0
TAP	24	0	1
TAP	24	48	1
TAP	24	96	1
TAP	24	192	3
TAP	24	240	3
TAP	24	288	3
TAP	25	0	6
TAP	25	96	4
TAP	25	144	4
STR	25	192	4
SI_	25	192	4	96	48	0
TAP	26	0	1
TAP	26	48	1
TAP	26	96	7
TAP	26	144	7
TAP	26	192	2
TAP	26	240	2
TAP	26	288	2
TAP	26	288	3
TAP	27	0	6
TAP	27	48	6
TAP	27	96	0
TAP	27	144	0
TAP	27	192	5
TAP	27	240	5
TAP	27	288	4
TAP	27	288	5
TAP	28	0	1
TAP	28	48	1
TAP	28	96	7
TAP	28	144	7
TAP	28	192	2
TAP	28	240	2
TAP	28	288	2
TAP	28	336	2
TAP	29	0	2
TAP	29	48	2
STR	29	96	2
SI_	29	96	2	96	48	0
BRK	29	288	7
TAP	30	0	0
HLD	30	0	1	1152
TAP	30	96	7
TAP	30	192	6
TAP	30	240	6
TAP	30	288	6
TAP	31	0	2
TAP	31	96	5
TAP	31	144	5
TAP	31	192	5
TAP	31	288	0
TAP	32	0	3
TAP	32	48	3
TAP	32	96	3
TAP	32	192	4
TAP	32	240	4
TAP	32	288	4
TAP	33	0	2
TAP	33	96	3
TAP	33	96	4
TAP	33	192	5
TAP	33	192	6
BRK	33	288	0
BRK	33	288	7
STR	34	0	1
SCR	34	0	1	96	192	4
TAP	34	192	5
STR	35	0	6
SCL	35	0	6	96	192	3
TAP	35	192	2
STR	36	0	1
SCR	36	0	1	96	192	4
TAP	36	192	5
HLD	37	0	3	192
HLD	37	0	4	192
HLD	38	0	0	72
HLD	38	72	1	72
TAP	38	144	2
TAP	38	240	3
TAP	38	240	4
TAP	38	288	3
TAP	38	288	4
HLD	39	0	7	72
HLD	39	72	6	72
TAP	39	144	5
TAP	39	240	3
TAP	39	240	4
STR	39	288	3
SXR	39	288	3	96	192	3
STR	39	288	4
SXL	39	288	4	96	192	4
BST	40	288	3
SI_	40	288	3	96	48	0
BST	40	288	4
SI_	40	288	4	96	48	7
TAP	41	192	0
TAP	41	192	7
TAP	41	288	2
STR	41	288	5
SCR	41	288	5	96	144	1
STR	42	288	2
SCL	42	288	2	96	144	6
TAP	42	288	5
TAP	43	240	0
TAP	43	240	7
TAP	43	288	0
TAP	43	288	7
TAP	44	0	3
TAP	44	0	4
TAP	44	96	1
TAP	44	144	0
TAP	44	144	2
TAP	44	240	6
TAP	44	288	5
TAP	44	288	7
STR	45	0	4
SI_	45	0	4	96	48	0
STR	45	0	5
SI_	45	0	5	96	48	7
BRK	45	192	1
BRK	45	192	6
STR	45	288	7
SCL	45	288	7	96	144	2
TAP	46	240	0
TAP	46	240	7
TAP	46	288	0
TAP	46	288	7
TAP	47	0	3
TAP	47	0	4
TAP	47	96	6
TAP	47	144	5
TAP	47	144	7
TAP	47	240	1
TAP	47	288	0
TAP	47	288	2
STR	48	0	2
SXR	48	0	2	96	192	7
STR	48	0	6
SXR	48	0	6	96	192	3
STR	49	0	1
SI_	49	0	1	96	48	4
STR	49	0	5
SI_	49	0	5	96	48	0
BRK	49	192	3
BRK	49	192	7
TAP	50	0	4
TAP	50	0	6
TAP	50	96	6
TAP	50	96	7
TAP	50	192	5
TAP	50	240	4
TAP	50	288	3
TAP	50	288	6
TAP	51	0	1
TAP	51	0	3
TAP	51	96	0
TAP	51	96	1
TAP	51	192	2
TAP	51	240	3
TAP	51	288	1
TAP	51	288	4
TAP	52	0	4
TAP	52	0	6
TAP	52	96	2
TAP	52	144	1
TAP	52	144	3
TAP	52	240	6
TAP	52	288	5
TAP	52	288	7
STR	53	0	2
SI_	53	0	2	96	48	0
STR	53	0	3
SI_	53	0	3	96	48	7
BRK	53	192	1
BRK	53	192	6
STR	53	288	0
SCR	53	288	0	96	144	5
TAP	54	240	0
TAP	54	240	7
TAP	54	288	0
TAP	54	288	7
BRK	55	0	5
BRK	55	0	7
BRK	55	96	3
BRK	55	96	4
BRK	55	192	0
BRK	55	192	2
TAP	55	336	3
TAP	55	336	4
HLD	56	0	3	96
TAP	56	0	4
HLD	56	96	2	96
HLD	56	192	1	96
HLD	56	288	0	96
HLD	57	0	7	96
HLD	57	96	6	96
HLD	57	192	5	96
STR	57	288	4
SCR	57	288	4	96	288	3
TAP	59	0	6
TAP	59	0	7
TAP	59	72	3
TAP	59	72	4
TAP	59	144	0
TAP	59	144	1
BRK	59	192	2
BRK	59	192	7
STR	60	0	2
SUR	60	0	2	96	144	6
STR	60	0	5
SUL	60	0	5	96	144	1
TAP	61	48	0
TAP	61	48	7
TAP	61	144	0
TAP	61	144	7
HLD	61	240	1	432
HLD	61	240	5	432
TAP	63	0	7
STR	63	96	7
SI_	63	96	7	96	96	3
TAP	64	0	2
TAP	64	96	2
TAP	64	96	3
TAP	64	192	5
TAP	64	288	4
TAP	64	288	5
TAP	65	0	2
TAP	65	96	1
TAP	65	96	3
TAP	65	192	5
TAP	65	288	4
TAP	65	288	6
TAP	66	0	0
TAP	66	0	7
TAP	66	48	0
TAP	66	48	7
TAP	66	96	0
TAP	66	96	7
TAP	66	144	0
TAP	66	144	7
STR	66	192	1
SV_	66	192	1	96	96	2
STR	66	192	6
SV_	66	192	6	96	96	5
TAP	67	192	0
TAP	67	192	7
STR	67	288	2
SCL	67	288	2	96	192	5
TAP	67	288	3
TAP	68	288	4
STR	68	288	5
SCR	68	288	5	96	192	2
TAP	69	240	3
TAP	69	240	4
TAP	69	288	3
TAP	69	288	4
TAP	70	0	0
TAP	70	0	7
TAP	70	96	5
TAP	70	144	4
TAP	70	144	6
TAP	70	240	1
TAP	70	288	0
TAP	70	288	2
STR	71	0	2
SI_	71	0	2	96	48	7
STR	71	0	3
SI_	71	0	3	96	48	6
BRK	71	192	0
BRK	71	192	5
STR	71	288	1
SCR	71	288	1	96	144	6
TAP	72	240	7
TAP	72	288	0
TAP	72	336	1
TAP	73	0	0
TAP	73	0	2
TAP	73	96	5
TAP	73	144	4
TAP	73	144	6
TAP	73	240	2
TAP	73	240	3
TAP	73	288	2
TAP	73	288	3
STR	74	0	1
SXL	74	0	1	96	192	4
STR	74	0	5
SXL	74	0	5	96	192	0
STR	75	0	2
SI_	75	0	2	96	48	7
STR	75	0	6
SI_	75	0	6	96	48	3
BRK	75	192	0
BRK	75	192	4
TAP	76	0	2
TAP	76	0	4
TAP	76	96	5
TAP	76	96	7
TAP	76	192	1
TAP	76	240	2
TAP	76	288	3
TAP	76	288	7
TAP	77	0	1
TAP	77	0	5
TAP	77	96	0
TAP	77	96	2
TAP	77	192	6
TAP	77	240	5
TAP	77	288	0
TAP	77	288	4
TAP	78	0	2
TAP	78	0	6
TAP	78	96	6
TAP	78	144	5
TAP	78	144	7
TAP	78	240	1
TAP	78	288	0
TAP	78	288	2
STR	79	0	4
SI_	79	0	4	96	48	1
STR	79	0	5
SI_	79	0	5	96	48	0
BRK	79	192	2
BRK	79	192	7
STR	79	288	6
SCL	79	288	6	96	144	1
TAP	80	240	3
TAP	80	240	4
TAP	80	288	3
TAP	80	288	4
BRK	81	0	5
BRK	81	0	7
BRK	81	96	3
BRK	81	96	4
BRK	81	192	0
BRK	81	192	2
TAP	81	336	3
TAP	81	336	4
TAP	82	0	3
HLD	82	0	4	96
HLD	82	96	5	96
HLD	82	192	6	96
HLD	82	288	7	96
HLD	83	0	0	96
HLD	83	96	1	96
HLD	83	192	2	96
STR	83	288	3
SCL	83	288	3	96	288	4
TAP	85	0	0
TAP	85	0	1
TAP	85	72	3
TAP	85	72	4
TAP	85	144	6
TAP	85	144	7
BRK	85	192	0
BRK	85	192	5
TAP	86	0	2
TAP	86	48	3
STR	86	96	1
SI_	86	96	1	96	48	5
TAP	86	96	4
TAP	86	288	4
TAP	86	288	6
TAP	87	0	5
TAP	87	48	4
TAP	87	96	3
STR	87	96	6
SI_	87	96	6	96	48	2
TAP	87	288	1
TAP	87	288	3
HLD	88	0	1	72
HLD	88	72	2	72
TAP	88	144	3
HLD	88	192	6	72
HLD	88	264	5	72
TAP	88	336	4
TAP	89	0	2
TAP	89	48	3
TAP	89	96	4
TAP	89	96	5
TAP	89	192	6
TAP	89	192	7
BRK	89	288	1
BRK	89	288	4
TAP	90	0	5
TAP	90	48	4
TAP	90	96	3
STR	90	96	6
SI_	90	96	6	96	48	2
TAP	90	288	0
TAP	90	288	1
TAP	91	0	2
TAP	91	48	3
STR	91	96	1
SI_	91	96	1	96	48	5
TAP	91	96	4
TAP	91	288	6
TAP	91	288	7
HLD	92	0	6	72
HLD	92	72	5	72
TAP	92	144	4
HLD	92	192	1	72
HLD	92	264	2	72
TAP	92	336	3
TAP	93	0	3
TAP	93	0	4
TAP	93	96	6
TAP	93	96	7
TAP	93	192	0
TAP	93	192	1
BRK	93	288	2
BRK	93	288	5
TAP	94	0	0
TAP	94	0	1
TAP	94	96	2
TAP	94	96	3
TAP	94	192	4
TAP	94	192	5
TAP	94	288	6
TAP	94	288	7
HLD	95	0	0	96
HLD	95	0	5	96
HLD	95	192	2	96
HLD	95	192	7	96
BST	96	0	1
SXL	96	0	1	96	336	4
BST	96	0	5
SXL	96	0	5	96	336	0
BST	97	192	1
SXR	97	192	1	96	1440	4
BRK	97	192	6

T_REC_TAP	364
T_REC_BRK	43
T_REC_XTP	0
T_REC_HLD	63
T_REC_XHO	0
T_REC_STR	44
T_REC_BST	5
T_REC_XST	0
T_REC_TTP	0
T_REC_THO	0
T_REC_SLD	50
T_REC_ALL	569
T_NUM_TAP	408
T_NUM_BRK	48
T_NUM_HLD	63
T_NUM_SLD	50
T_NUM_ALL	569
T_JUDGE_TAP	456
T_JUDGE_HLD	218
T_JUDGE_SLD	50
T_JUDGE_ALL	724
TTM_EACHPAIRS	165
TTM_SCR_TAP	204000
TTM_SCR_BRK	124800
TTM_SCR_HLD	63000
TTM_SCR_SLD	75000
TTM_SCR_ALL	466800
TTM_SCR_S	448150
TTM_SCR_SS	462000
TTM_RAT_ACV	10103

