VERSION	0.00.00	1.03.00
FES_MODE	0
BPM_DEF	168.000	168.000	168.000	168.000
MET_DEF	4	4
RESOLUTION	384
CLK_DEF	384
COMPATIBLE_CODE	MA2

BPM	0	0	168.000

HLD	2	0	2	192
TAP	2	192	3
HLD	3	0	5	192
TAP	3	192	4
HLD	4	0	2	192
TAP	4	192	3
HLD	5	0	3	192
HLD	5	0	4	192
TAP	6	0	5
TAP	6	96	5
TAP	6	192	4
TAP	7	0	2
TAP	7	96	2
TAP	7	192	3
TAP	8	0	6
TAP	8	96	6
TAP	8	192	7
STR	8	288	0
SCR	8	288	0	96	240	3
STR	8	288	7
SCL	8	288	7	96	240	4
TAP	10	0	5
TAP	10	96	5
TAP	10	192	4
TAP	10	192	5
TAP	11	0	2
TAP	11	96	2
TAP	11	192	2
TAP	11	192	3
TAP	12	0	5
TAP	12	96	5
TAP	12	192	4
TAP	12	288	4
TAP	13	0	3
TAP	13	96	3
TAP	13	192	2
TAP	13	192	4
TAP	14	0	1
TAP	14	96	1
TAP	14	192	0
TAP	14	192	1
TAP	15	0	6
TAP	15	96	6
TAP	15	192	6
TAP	15	192	7
HLD	16	0	0	96
HLD	16	0	1	96
HLD	16	192	6	96
HLD	16	192	7	96
TAP	17	0	0
TAP	17	0	7
TAP	17	96	0
TAP	17	96	7
BRK	17	192	1
BRK	17	192	6
TAP	18	0	5
TAP	18	96	5
TAP	18	192	4
TAP	18	192	6
TAP	19	0	2
TAP	19	96	2
TAP	19	192	1
TAP	19	192	3
TAP	20	0	4
TAP	20	96	4
TAP	20	192	3
TAP	20	288	3
TAP	21	0	3
TAP	21	0	4
TAP	21	96	3
TAP	21	96	4
TAP	21	192	2
TAP	21	192	5
TAP	21	288	2
TAP	21	288	5
HLD	22	0	2	96
HLD	22	0	5	96
HLD	22	192	4	96
HLD	22	192	5	96
HLD	23	0	2	96
HLD	23	0	3	96
HLD	23	192	4	96
HLD	23	192	5	96
TAP	24	0	2
TAP	24	96	3
TAP	24	192	5
TAP	24	288	4
TAP	25	0	2
TAP	25	0	3
TAP	25	96	2
TAP	25	96	3
TAP	25	192	1
TAP	25	192	4
TAP	26	0	1
TAP	26	96	2
TAP	26	192	3
TAP	26	192	4
TAP	27	0	6
TAP	27	96	5
TAP	27	192	3
TAP	27	192	4
TAP	28	0	1
TAP	28	96	1
TAP	28	192	2
BRK	28	288	2
BRK	29	0	2
BRK	29	96	2
BRK	29	192	2
BRK	29	288	1
BRK	29	288	3
HLD	30	0	4	96
HLD	30	0	5	96
HLD	30	192	2	96
HLD	30	192	3	96
HLD	31	0	4	96
HLD	31	0	6	96
HLD	31	192	1	96
HLD	31	192	3	96
TAP	32	0	2
TAP	32	96	3
TAP	32	192	4
TAP	32	288	5
TAP	33	0	4
TAP	33	0	5
TAP	33	96	3
TAP	33	96	4
TAP	33	192	2
TAP	33	192	3
BRK	33	288	1
BRK	33	288	4
HLD	34	0	2	192
HLD	34	192	3	192
TAP	35	0	2
TAP	35	96	2
TAP	35	192	1
TAP	35	192	3
HLD	36	0	5	192
HLD	36	192	4	192
TAP	37	0	5
TAP	37	96	5
TAP	37	192	4
TAP	37	192	6
TAP	38	0	2
TAP	38	96	3
TAP	38	192	1
TAP	38	192	4
TAP	39	0	5
TAP	39	96	4
TAP	39	192	3
TAP	39	192	6
TAP	40	0	2
TAP	40	0	5
TAP	40	96	2
TAP	40	96	5
TAP	40	192	3
TAP	40	192	4
BST	40	288	3
SI_	40	288	3	96	96	0
TAP	41	192	7
TAP	42	0	2
TAP	42	0	3
TAP	42	96	1
TAP	42	192	4
TAP	42	192	5
TAP	42	288	6
TAP	43	0	3
TAP	43	96	2
TAP	43	96	4
TAP	43	192	1
TAP	43	192	5
TAP	44	0	4
TAP	44	0	5
TAP	44	96	6
TAP	44	192	2
TAP	44	192	3
TAP	44	288	1
TAP	45	0	4
TAP	45	96	3
TAP	45	96	5
TAP	45	192	2
TAP	45	192	6
HLD	46	0	1	192
TAP	46	96	0
TAP	46	192	7
HLD	47	0	6	192
TAP	47	96	7
TAP	47	192	0
TAP	48	0	1
TAP	48	96	0
TAP	48	96	1
TAP	48	192	6
TAP	48	288	6
TAP	48	288	7
HLD	49	0	0	192
TAP	49	192	7
TAP	49	288	1
TAP	49	288	6
TAP	50	0	0
TAP	50	96	1
TAP	50	192	2
TAP	50	192	3
TAP	50	288	2
TAP	50	288	3
TAP	51	0	4
TAP	51	96	5
TAP	51	192	3
TAP	51	192	6
TAP	52	0	7
TAP	52	96	6
TAP	52	192	4
TAP	52	192	5
TAP	52	288	4
TAP	52	288	5
TAP	53	0	3
TAP	53	96	2
TAP	53	192	1
TAP	53	192	4
TAP	54	0	3
TAP	54	0	5
TAP	54	96	3
TAP	54	96	5
TAP	54	192	2
TAP	54	192	4
TAP	54	288	2
TAP	54	288	4
TAP	55	0	3
TAP	55	0	5
TAP	55	96	2
TAP	55	96	6
BRK	55	192	1
BRK	55	192	7
HLD	56	0	0	96
HLD	56	0	1	96
HLD	56	192	6	96
HLD	56	192	7	96
TAP	57	0	0
TAP	57	0	7
TAP	57	96	1
TAP	57	96	6
TAP	57	192	2
TAP	57	192	5
STR	57	288	2
SLL	57	288	2	96	240	3
STR	57	288	5
SLR	57	288	5	96	240	4
HLD	59	0	3	96
HLD	59	0	4	96
BRK	59	192	2
BRK	59	192	5
STR	60	0	5
SCR	60	0	5	96	288	2
TAP	61	192	3
TAP	61	192	4
TAP	61	288	3
TAP	61	288	4
STR	62	0	3
SUR	62	0	3	96	288	4
TAP	63	192	2
TAP	63	192	5
TAP	63	288	2
TAP	63	288	5
TAP	64	0	2
TAP	64	96	2
TAP	64	96	3
TAP	64	192	2
TAP	64	288	2
TAP	64	288	3
TAP	65	0	5
TAP	65	96	4
TAP	65	96	5
TAP	65	192	5
TAP	65	288	4
TAP	65	288	5
TAP	66	0	3
TAP	66	0	4
TAP	66	96	2
TAP	66	96	5
BST	66	192	1
SV_	66	192	1	96	144	3
BST	66	192	6
SV_	66	192	6	96	144	4
TAP	67	192	2
TAP	67	192	5
TAP	68	0	0
TAP	68	0	1
TAP	68	96	2
TAP	68	192	6
TAP	68	192	7
TAP	68	288	5
TAP	69	0	0
TAP	69	0	1
TAP	69	96	2
TAP	69	96	7
TAP	69	192	3
TAP	69	192	6
TAP	70	0	6
TAP	70	0	7
TAP	70	96	5
TAP	70	192	0
TAP	70	192	1
TAP	70	288	2
TAP	71	0	6
TAP	71	0	7
TAP	71	96	0
TAP	71	96	5
TAP	71	192	1
TAP	71	192	4
HLD	72	0	6	192
TAP	72	96	7
TAP	72	192	0
HLD	73	0	1	192
TAP	73	96	0
TAP	73	192	7
TAP	74	0	2
TAP	74	0	3
TAP	74	96	1
TAP	74	96	4
TAP	74	192	4
TAP	74	192	5
TAP	74	288	3
TAP	74	288	6
HLD	75	0	2	96
HLD	75	0	5	96
BRK	75	192	1
BRK	75	192	6
TAP	76	0	3
TAP	76	96	2
TAP	76	192	0
TAP	76	192	1
TAP	76	288	0
TAP	76	288	1
TAP	77	0	7
TAP	77	96	6
TAP	77	192	0
TAP	77	192	5
TAP	78	0	4
TAP	78	96	5
TAP	78	192	6
TAP	78	192	7
TAP	78	288	6
TAP	78	288	7
TAP	79	0	0
TAP	79	96	1
TAP	79	192	2
TAP	79	192	7
TAP	80	0	0
TAP	80	0	6
TAP	80	96	0
TAP	80	96	6
TAP	80	192	1
TAP	80	192	7
TAP	80	288	1
TAP	80	288	7
TAP	81	0	0
TAP	81	0	6
TAP	81	96	1
TAP	81	96	5
BRK	81	192	2
BRK	81	192	4
HLD	82	0	4	96
HLD	82	0	6	96
HLD	82	192	1	96
HLD	82	192	3	96
TAP	83	0	3
TAP	83	0	4
TAP	83	96	2
TAP	83	96	5
TAP	83	192	1
TAP	83	192	6
STR	83	288	1
SLR	83	288	1	96	240	0
STR	83	288	6
SLL	83	288	6	96	240	7
HLD	85	0	0	96
HLD	85	0	7	96
BRK	85	192	1
BRK	85	192	6
TAP	86	0	2
TAP	86	96	3
TAP	86	192	2
TAP	86	288	1
TAP	86	288	4
TAP	87	0	5
TAP	87	96	4
TAP	87	192	3
TAP	87	192	6
TAP	88	0	5
TAP	88	96	4
TAP	88	192	5
TAP	88	288	3
TAP	88	288	6
TAP	89	0	2
TAP	89	96	3
TAP	89	192	1
TAP	89	192	4
HLD	90	0	1	96
TAP	90	96	0
TAP	90	192	2
TAP	90	192	7
HLD	91	0	6	96
TAP	91	96	7
TAP	91	192	0
TAP	91	192	5
HLD	92	0	1	96
HLD	92	0	3	96
HLD	92	192	4	96
HLD	92	192	6	96
TAP	93	0	0
TAP	93	0	1
TAP	93	96	2
TAP	93	96	7
TAP	93	192	3
TAP	93	192	6
TAP	93	288	4
TAP	93	288	5
TAP	94	0	2
TAP	94	0	3
TAP	94	96	1
TAP	94	96	4
TAP	94	192	0
TAP	94	192	5
TAP	94	288	6
TAP	94	288	7
HLD	95	0	0	192
HLD	95	192	7	192
STR	96	0	0
SSL	96	0	0	96	288	4
BRK	97	192	1
BRK	97	192	6

T_REC_TAP	327
T_REC_BRK	22
T_REC_XTP	0
T_REC_HLD	56
T_REC_XHO	0
T_REC_STR	9
T_REC_BST	3
T_REC_XST	0
T_REC_TTP	0
T_REC_THO	0
T_REC_SLD	12
T_REC_ALL	429
T_NUM_TAP	336
T_NUM_BRK	25
T_NUM_HLD	56
T_NUM_SLD	12
T_NUM_ALL	429
T_JUDGE_TAP	361
T_JUDGE_HLD	144
T_JUDGE_SLD	12
T_JUDGE_ALL	517
TTM_EACHPAIRS	141
TTM_SCR_TAP	168000
TTM_SCR_BRK	65000
TTM_SCR_HLD	56000
TTM_SCR_SLD	18000
TTM_SCR_ALL	307000
TTM_SCR_S	295400
TTM_SCR_SS	304500
TTM_RAT_ACV	10082

