VERSION	0.00.00	1.03.00
FES_MODE	0
BPM_DEF	168.000	168.000	168.000	168.000
MET_DEF	4	4
RESOLUTION	384
CLK_DEF	384
COMPATIBLE_CODE	MA2

BPM	0	0	168.000

TAP	6	0	3
TAP	6	192	4
TAP	7	0	3
TAP	7	192	4
TAP	8	0	3
TAP	8	192	4
BRK	9	0	3
BRK	9	0	4
TAP	10	0	2
TAP	10	96	2
TAP	10	192	2
TAP	11	0	1
TAP	11	96	1
TAP	11	192	1
TAP	12	0	0
TAP	12	96	0
TAP	12	192	0
TAP	13	0	7
TAP	13	96	0
TAP	13	192	7
TAP	14	0	6
TAP	14	96	6
TAP	14	192	6
TAP	15	0	5
TAP	15	96	5
TAP	15	192	5
TAP	16	0	3
TAP	16	0	4
TAP	16	192	3
TAP	16	192	4
TAP	17	0	3
TAP	17	96	4
BRK	17	192	3
TAP	18	0	3
TAP	18	192	3
TAP	19	0	2
TAP	19	96	2
TAP	19	192	2
TAP	20	0	1
TAP	20	192	1
TAP	21	0	0
TAP	21	96	0
TAP	21	192	0
STR	22	0	7
SI_	22	0	7	96	288	4
STR	24	0	0
SI_	24	0	0	96	288	3
TAP	26	0	4
TAP	26	192	4
TAP	27	0	5
TAP	27	96	5
TAP	27	192	5
TAP	28	0	6
TAP	28	192	6
TAP	29	0	7
TAP	29	96	7
TAP	29	192	7
STR	30	0	0
SI_	30	0	0	96	288	3
STR	32	0	7
SI_	32	0	7	96	288	4
HLD	34	0	3	192
HLD	35	0	2	192
HLD	36	0	4	192
HLD	37	0	5	192
TAP	38	0	3
TAP	38	96	3
TAP	38	192	2
TAP	38	192	4
TAP	39	0	4
TAP	39	96	4
TAP	39	192	3
TAP	39	192	5
TAP	40	0	3
TAP	40	96	4
TAP	40	192	3
BRK	41	0	3
BRK	41	0	4
TAP	42	0	2
TAP	42	96	2
TAP	42	192	2
TAP	43	0	1
TAP	43	96	1
TAP	43	192	1
TAP	44	0	0
TAP	44	96	0
TAP	44	192	7
TAP	44	288	7
TAP	45	0	0
TAP	45	0	7
TAP	45	96	0
TAP	45	96	7
TAP	45	192	1
TAP	45	192	6
HLD	46	0	5	192
HLD	47	0	4	192
TAP	48	0	3
TAP	48	96	3
TAP	48	192	4
TAP	48	288	4
TAP	49	0	3
TAP	49	0	4
BRK	49	192	2
BRK	49	192	5
TAP	50	0	5
TAP	50	96	5
TAP	50	192	5
TAP	51	0	6
TAP	51	96	6
TAP	51	192	6
TAP	52	0	7
TAP	52	96	7
TAP	52	192	0
TAP	52	288	0
TAP	53	0	0
TAP	53	0	7
TAP	53	96	0
TAP	53	96	7
TAP	53	192	1
TAP	53	192	6
HLD	54	0	2	192
HLD	55	0	3	192
TAP	56	0	4
TAP	56	96	4
TAP	56	192	3
TAP	56	288	3
TAP	57	0	3
TAP	57	0	4
TAP	57	192	3
TAP	57	192	4
HLD	58	0	3	192
HLD	58	0	4	192
BRK	59	0	2
BRK	59	0	5
TAP	60	0	1
TAP	61	0	1
TAP	62	0	2
TAP	63	0	2
TAP	64	0	3
TAP	64	192	4
TAP	65	0	3
TAP	65	192	4
TAP	66	0	2
TAP	66	0	5
BRK	66	192	3
BRK	66	192	4
TAP	68	0	5
TAP	68	96	5
TAP	68	192	5
TAP	69	0	6
TAP	69	96	6
TAP	69	192	6
TAP	70	0	7
TAP	70	96	7
TAP	70	192	0
TAP	70	288	0
TAP	71	0	0
TAP	71	0	7
TAP	71	96	0
TAP	71	96	7
TAP	71	192	1
TAP	71	192	6
HLD	72	0	2	192
HLD	73	0	3	192
TAP	74	0	4
TAP	74	96	4
TAP	74	192	3
TAP	74	288	3
TAP	75	0	3
TAP	75	0	4
BRK	75	192	2
BRK	75	192	5
TAP	76	0	2
TAP	76	96	2
TAP	76	192	2
TAP	77	0	1
TAP	77	96	1
TAP	77	192	1
TAP	78	0	0
TAP	78	96	0
TAP	78	192	7
TAP	78	288	7
TAP	79	0	0
TAP	79	0	7
TAP	79	96	0
TAP	79	96	7
TAP	79	192	1
TAP	79	192	6
HLD	80	0	5	192
HLD	81	0	4	192
TAP	82	0	3
TAP	82	96	3
TAP	82	192	4
TAP	82	288	4
TAP	83	0	3
TAP	83	0	4
TAP	83	192	3
TAP	83	192	4
HLD	84	0	3	192
HLD	84	0	4	192
BRK	85	0	2
BRK	85	0	5
TAP	86	0	1
TAP	86	192	1
TAP	87	0	2
TAP	87	192	2
TAP	88	0	3
TAP	88	192	3
TAP	89	0	4
TAP	89	96	3
TAP	89	192	4
TAP	90	0	5
TAP	90	192	5
TAP	91	0	6
TAP	91	192	6
TAP	92	0	7
TAP	92	192	7
TAP	93	0	0
TAP	93	96	0
TAP	93	192	0
TAP	94	0	7
TAP	94	96	7
TAP	94	192	7
TAP	95	0	0
TAP	95	0	7
TAP	95	192	0
TAP	95	192	7
HLD	96	0	0	384
HLD	96	0	7	384
BRK	97	192	1
BRK	97	192	6

T_REC_TAP	188
T_REC_BRK	17
T_REC_XTP	0
T_REC_HLD	18
T_REC_XHO	0
T_REC_STR	4
T_REC_BST	0
T_REC_XST	0
T_REC_TTP	0
T_REC_THO	0
T_REC_SLD	4
T_REC_ALL	231
T_NUM_TAP	192
T_NUM_BRK	17
T_NUM_HLD	18
T_NUM_SLD	4
T_NUM_ALL	231
T_JUDGE_TAP	209
T_JUDGE_HLD	80
T_JUDGE_SLD	4
T_JUDGE_ALL	293
TTM_EACHPAIRS	36
TTM_SCR_TAP	96000
TTM_SCR_BRK	44200
TTM_SCR_HLD	18000
TTM_SCR_SLD	6000
TTM_SCR_ALL	164200
TTM_SCR_S	157650
TTM_SCR_SS	162500
TTM_RAT_ACV	10104

