VERSION	0.00.00	1.03.00
FES_MODE	0
BPM_DEF	172.000	172.000	172.000	172.000
MET_DEF	4	4
RESOLUTION	384
CLK_DEF	384
COMPATIBLE_CODE	MA2

BPM	0	0	172.000

HLD	2	0	0	144
HLD	2	0	4	144
HLD	2	192	3	144
HLD	2	192	6	144
HLD	3	0	1	144
HLD	3	0	4	144
HLD	3	192	3	144
HLD	3	192	5	144
TAP	4	0	2
TAP	4	0	3
TAP	4	96	1
TAP	4	96	2
TAP	4	192	0
TAP	4	192	1
TAP	4	288	0
TAP	4	288	7
TAP	5	0	6
TAP	5	0	7
TAP	5	96	5
TAP	5	96	6
TAP	5	192	4
TAP	5	192	5
TAP	5	288	3
TAP	5	312	4
TAP	5	336	3
TAP	5	360	4
STR	6	0	2
SI_	6	0	2	96	48	7
TAP	6	48	4
TAP	6	96	5
TAP	6	144	4
STR	6	192	5
SI_	6	192	5	96	48	0
TAP	6	240	3
TAP	6	288	2
TAP	6	336	3
STR	7	0	2
SCL	7	0	2	96	48	7
TAP	7	48	4
TAP	7	96	5
TAP	7	144	4
STR	7	192	5
SCR	7	192	5	96	48	0
TAP	7	240	3
TAP	7	288	2
TAP	7	336	3
TAP	8	0	2
TAP	8	0	6
TAP	8	48	1
TAP	8	96	0
TAP	8	144	3
TAP	8	144	7
TAP	8	192	6
TAP	8	240	5
TAP	8	288	0
TAP	8	288	4
TAP	8	336	3
BST	9	0	2
SLR	9	0	2	96	144	0
BST	9	0	5
SLL	9	0	5	96	144	7
HLD	10	0	0	672
STR	10	0	7
SCR	10	0	7	96	1248	7
BRK	12	0	0
BRK	12	192	1
BRK	13	0	0
BRK	13	96	1
BRK	13	192	2
BRK	13	288	3
BRK	13	288	7
TAP	14	0	3
TAP	14	48	2
TAP	14	96	1
TAP	14	96	4
TAP	14	144	2
TAP	14	192	3
TAP	14	240	2
TAP	14	288	1
TAP	14	288	4
TAP	14	336	2
TAP	15	0	3
TAP	15	48	4
TAP	15	96	2
STR	15	96	5
SI_	15	96	5	96	48	2
STR	15	192	1
SI_	15	192	1	96	48	6
TAP	15	288	5
TAP	16	0	4
TAP	16	48	5
TAP	16	96	3
TAP	16	96	6
TAP	16	144	5
TAP	16	192	4
TAP	16	240	5
TAP	16	288	3
TAP	16	288	6
TAP	16	336	5
TAP	17	0	2
TAP	17	0	4
TAP	17	48	3
TAP	17	96	4
TAP	17	96	6
TAP	17	144	5
BRK	17	192	0
TAP	17	192	4
BRK	17	240	0
BRK	17	288	0
TAP	18	0	1
TAP	18	48	0
TAP	18	96	2
TAP	18	96	7
TAP	18	144	0
TAP	18	192	1
TAP	18	240	0
TAP	18	288	2
TAP	18	288	7
TAP	18	336	0
STR	19	0	1
SI_	19	0	1	96	48	6
TAP	19	48	1
STR	19	96	5
SI_	19	96	5	96	48	2
TAP	19	144	5
STR	19	192	0
SI_	19	192	0	96	48	4
TAP	19	240	0
TAP	19	288	5
TAP	20	0	6
TAP	20	48	7
TAP	20	96	0
TAP	20	96	5
TAP	20	144	7
TAP	20	192	6
TAP	20	240	7
TAP	20	288	0
TAP	20	288	5
TAP	20	336	7
TAP	21	0	3
TAP	21	0	6
TAP	21	48	5
TAP	21	96	1
TAP	21	96	4
TAP	21	144	2
TAP	21	192	3
BRK	21	192	7
BRK	21	240	7
BRK	21	288	7
TAP	22	0	3
TAP	22	48	2
TAP	22	96	1
TAP	22	144	0
TAP	22	192	4
TAP	22	240	5
TAP	22	288	6
TAP	22	336	7
HLD	23	0	1	96
TAP	23	96	0
BRK	23	192	0
BRK	23	192	1
BRK	23	240	0
BRK	23	240	1
BRK	23	288	0
BRK	23	288	1
TAP	24	0	3
TAP	24	48	4
TAP	24	96	1
TAP	24	96	5
TAP	24	144	6
TAP	24	192	2
TAP	24	240	1
TAP	24	288	0
TAP	24	288	5
TAP	24	336	7
HLD	25	0	6	96
TAP	25	96	7
BRK	25	192	6
BRK	25	192	7
BRK	25	240	6
BRK	25	240	7
BRK	25	288	6
BRK	25	288	7
TAP	26	0	2
TAP	26	48	3
TAP	26	96	2
TAP	26	96	4
TAP	26	144	5
TAP	26	192	1
TAP	26	240	0
TAP	26	288	1
TAP	26	288	7
TAP	26	336	6
HLD	27	0	1	96
STR	27	96	0
SSL	27	96	0	96	96	4
TAP	28	0	5
TAP	28	48	4
TAP	28	96	3
TAP	28	96	5
TAP	28	144	2
TAP	28	192	6
TAP	28	240	7
TAP	28	288	0
TAP	28	288	6
TAP	28	336	1
BRK	29	0	2
BRK	29	0	6
BRK	29	96	0
BRK	29	96	4
BRK	29	192	3
BRK	29	192	7
BRK	29	240	2
BRK	29	240	6
BRK	29	288	1
BRK	29	288	5
BRK	30	0	0
BRK	30	0	1
BRK	30	48	0
BRK	30	48	2
BRK	30	96	0
BRK	30	96	3
BRK	30	192	6
BRK	30	192	7
BRK	30	240	5
BRK	30	240	7
BRK	30	288	4
BRK	30	288	7
BRK	31	0	1
BRK	31	0	5
BRK	31	48	2
BRK	31	48	6
BRK	31	96	3
BRK	31	96	7
BRK	31	192	1
BRK	31	192	6
BRK	32	0	2
BRK	32	0	5
BRK	32	96	0
BRK	32	96	1
BRK	32	144	3
BRK	32	144	4
BRK	32	192	6
BRK	32	192	7
BST	32	288	1
SI_	32	288	1	96	48	4
BST	32	288	6
SI_	32	288	6	96	48	3
BRK	33	96	0
BRK	33	96	7
BRK	33	192	2
BRK	33	192	5
STR	34	0	6
SI_	34	0	6	96	48	3
TAP	34	0	7
TAP	34	48	0
TAP	34	48	5
BRK	34	96	6
TAP	34	96	7
TAP	34	192	0
STR	34	192	1
SI_	34	192	1	96	48	4
TAP	34	240	2
TAP	34	240	7
TAP	34	288	0
BRK	34	288	1
TAP	35	0	0
STR	35	0	6
SI_	35	0	6	96	48	3
TAP	35	48	6
STR	35	96	2
SI_	35	96	2	96	48	7
TAP	35	144	2
TAP	35	192	5
TAP	35	240	5
BRK	35	288	0
BRK	35	288	4
BRK	35	336	2
BRK	35	336	6
TAP	36	48	4
TAP	36	48	5
TAP	36	96	3
HLD	36	96	6	96
TAP	36	192	7
STR	36	240	0
SI_	36	240	0	96	48	4
TAP	36	240	5
STR	36	336	7
SI_	36	336	7	96	48	3
TAP	37	48	2
TAP	37	96	1
TAP	37	144	0
BRK	37	192	6
BRK	37	192	7
BRK	37	240	3
BRK	37	240	4
BRK	37	288	0
BRK	37	288	1
TAP	38	0	2
TAP	38	0	7
TAP	38	48	5
TAP	38	72	4
TAP	38	96	5
TAP	38	144	7
TAP	38	192	3
TAP	38	192	5
TAP	38	240	1
TAP	38	288	2
TAP	38	288	4
TAP	38	336	6
TAP	39	0	0
TAP	39	0	5
TAP	39	48	2
TAP	39	72	3
TAP	39	96	2
TAP	39	144	0
TAP	39	192	2
TAP	39	192	4
TAP	39	240	6
TAP	39	288	3
TAP	39	288	5
TAP	39	336	1
TAP	40	0	2
TAP	40	0	6
TAP	40	72	1
TAP	40	72	5
TAP	40	144	0
TAP	40	144	4
STR	40	192	3
SI_	40	192	3	96	48	6
STR	40	192	7
SI_	40	192	7	96	48	2
BRK	40	288	3
BRK	40	288	7
TAP	41	0	1
TAP	41	0	5
TAP	41	72	2
TAP	41	72	6
TAP	41	144	3
TAP	41	144	7
STR	41	192	0
SI_	41	192	0	96	48	5
STR	41	192	4
SI_	41	192	4	96	48	1
BRK	41	288	0
BRK	41	288	4
TAP	42	0	0
STR	42	0	1
SI_	42	0	1	96	48	4
TAP	42	48	2
TAP	42	48	7
TAP	42	96	0
BRK	42	96	1
STR	42	192	6
SI_	42	192	6	96	48	3
TAP	42	192	7
TAP	42	240	0
TAP	42	240	5
BRK	42	288	6
TAP	42	288	7
STR	43	0	1
SI_	43	0	1	96	48	4
TAP	43	0	7
TAP	43	48	1
STR	43	96	5
SI_	43	96	5	96	48	0
TAP	43	144	5
TAP	43	192	2
TAP	43	240	2
BRK	43	288	3
BRK	43	288	7
BRK	43	336	1
BRK	43	336	5
TAP	44	48	2
TAP	44	48	3
HLD	44	96	1	96
TAP	44	96	4
TAP	44	192	0
TAP	44	240	2
STR	44	240	7
SI_	44	240	7	96	48	3
STR	44	336	0
SI_	44	336	0	96	48	4
TAP	45	48	5
TAP	45	96	6
TAP	45	144	7
BRK	45	192	0
BRK	45	192	1
BRK	45	240	3
BRK	45	240	4
BRK	45	288	6
BRK	45	288	7
TAP	46	0	0
TAP	46	0	5
TAP	46	48	2
TAP	46	72	3
TAP	46	96	2
TAP	46	144	0
TAP	46	192	2
TAP	46	192	4
TAP	46	240	6
TAP	46	288	3
TAP	46	288	5
TAP	46	336	1
TAP	47	0	2
TAP	47	0	7
TAP	47	48	5
TAP	47	72	4
TAP	47	96	5
TAP	47	144	7
TAP	47	192	3
TAP	47	192	5
TAP	47	240	1
TAP	47	288	2
TAP	47	288	4
TAP	47	336	6
TAP	48	0	1
TAP	48	0	5
TAP	48	72	2
TAP	48	72	6
TAP	48	144	3
TAP	48	144	7
STR	48	192	0
SI_	48	192	0	96	48	5
STR	48	192	4
SI_	48	192	4	96	48	1
BRK	48	288	0
BRK	48	288	4
TAP	49	0	2
TAP	49	0	6
TAP	49	72	1
TAP	49	72	5
TAP	49	144	0
TAP	49	144	4
STR	49	192	3
SI_	49	192	3	96	48	6
STR	49	192	7
SI_	49	192	7	96	48	2
BRK	49	288	3
BST	49	288	7
SCL	49	288	7	96	384	0
HLD	50	0	3	384
STR	51	96	0
SSL	51	96	0	96	96	4
TAP	51	96	7
STR	52	0	3
SCL	52	0	3	96	288	0
TAP	52	192	4
STR	53	0	4
SCR	53	0	4	96	288	7
TAP	53	192	0
HLD	54	0	0	384
TAP	54	192	7
STR	55	0	7
SCL	55	0	7	96	288	4
TAP	55	192	0
STR	56	0	1
SCR	56	0	1	96	192	4
TAP	56	192	5
STR	57	0	1
SCR	57	0	1	96	48	4
BRK	57	96	1
STR	57	192	1
SCR	57	192	1	96	48	4
BRK	57	288	1
STR	58	0	3
SI_	58	0	3	96	192	7
STR	58	0	5
SI_	58	0	5	96	192	1
STR	59	0	1
SCR	59	0	1	96	48	4
HLD	59	0	7	192
BST	59	96	1
SI_	59	96	1	96	48	5
BRK	59	192	1
STR	60	0	1
SCL	60	0	1	96	48	6
STR	60	0	6
SI_	60	0	6	96	48	2
STR	60	192	2
SCR	60	192	2	96	48	5
STR	60	192	5
SI_	60	192	5	96	48	1
TAP	61	0	3
TAP	61	24	3
TAP	61	48	3
TAP	61	96	2
TAP	61	120	2
TAP	61	144	2
TAP	61	192	1
TAP	61	216	1
TAP	61	240	1
TAP	61	288	0
TAP	61	312	0
TAP	61	336	0
STR	62	0	7
SI_	62	0	7	96	48	1
TAP	62	48	7
STR	62	96	7
SSL	62	96	7	96	96	3
STR	63	0	3
SCL	63	0	3	96	48	0
STR	63	0	4
SCR	63	0	4	96	48	7
STR	63	96	3
SI_	63	96	3	96	48	7
STR	63	96	4
SI_	63	96	4	96	48	0
BRK	63	192	3
BRK	63	192	4
BST	64	0	1
SCR	64	0	1	96	48	4
BST	64	0	5
SCR	64	0	5	96	48	0
BST	64	192	6
SI_	64	192	6	96	48	0
BST	64	192	7
SI_	64	192	7	96	48	3
BST	65	0	2
SI_	65	0	2	96	48	4
BST	65	0	6
SLR	65	0	6	96	48	4
BST	65	192	1
SV_	65	192	1	96	48	4
BST	65	192	7
SV_	65	192	7	96	48	4
BRK	66	0	0
BRK	66	0	7
BRK	66	96	1
BRK	66	96	2
BRK	66	192	3
BRK	66	192	4
BRK	66	288	5
BST	66	288	6
SI_	66	288	6	96	48	0
BST	67	0	0
SI_	67	0	0	96	48	4
BRK	67	0	6
BRK	67	96	0
BST	67	96	4
SI_	67	96	4	96	48	2
BRK	67	192	2
BRK	67	192	4
BST	68	0	1
SUL	68	0	1	96	96	3
BST	68	0	6
SUR	68	0	6	96	96	4
TAP	69	0	3
TAP	69	0	4
TAP	69	96	3
TAP	69	96	4
TAP	69	192	3
TAP	69	216	4
TAP	69	240	3
BRK	69	288	1
BRK	69	288	6
STR	70	0	0
SI_	70	0	0	96	48	4
STR	70	0	1
SI_	70	0	1	96	48	5
TAP	70	48	2
TAP	70	48	7
BRK	70	96	0
BRK	70	96	1
STR	70	192	6
SI_	70	192	6	96	48	2
STR	70	192	7
SI_	70	192	7	96	48	3
TAP	70	240	0
TAP	70	240	5
BRK	70	288	6
BRK	70	288	7
STR	71	0	1
SI_	71	0	1	96	48	5
TAP	71	0	7
TAP	71	48	1
TAP	71	96	1
STR	71	96	7
SI_	71	96	7	96	48	3
TAP	71	144	7
TAP	71	192	2
TAP	71	192	7
TAP	71	240	2
BRK	71	288	0
BRK	71	288	4
BRK	71	336	2
BRK	71	336	6
TAP	72	48	6
TAP	72	48	7
HLD	72	96	1	96
TAP	72	96	4
TAP	72	192	0
TAP	72	240	3
STR	72	240	6
SCL	72	240	6	96	48	3
STR	72	336	0
SI_	72	336	0	96	48	4
TAP	73	48	5
TAP	73	96	6
TAP	73	144	7
BRK	73	192	0
BRK	73	192	2
BRK	73	240	3
BRK	73	240	4
BRK	73	288	5
BRK	73	288	7
TAP	74	0	0
TAP	74	0	5
TAP	74	48	6
TAP	74	72	7
TAP	74	96	6
TAP	74	144	4
TAP	74	192	2
TAP	74	192	7
TAP	74	240	3
TAP	74	288	0
TAP	74	288	5
TAP	74	336	4
TAP	75	0	2
TAP	75	0	7
TAP	75	48	1
TAP	75	72	0
TAP	75	96	1
TAP	75	144	3
TAP	75	192	0
TAP	75	192	5
TAP	75	240	4
TAP	75	288	2
TAP	75	288	7
TAP	75	336	3
HLD	76	0	1	48
HLD	76	0	5	48
HLD	76	72	2	48
HLD	76	72	6	48
TAP	76	144	3
TAP	76	144	7
STR	76	192	0
SI_	76	192	0	96	48	4
STR	76	192	4
SI_	76	192	4	96	48	1
BRK	76	288	0
BRK	76	288	4
HLD	77	0	2	48
HLD	77	0	6	48
HLD	77	72	1	48
HLD	77	72	5	48
TAP	77	144	0
TAP	77	144	4
STR	77	192	3
SI_	77	192	3	96	48	6
STR	77	192	7
SI_	77	192	7	96	48	3
BRK	77	288	3
BRK	77	288	7
STR	78	0	6
SI_	78	0	6	96	48	2
STR	78	0	7
SI_	78	0	7	96	48	3
TAP	78	48	0
TAP	78	48	5
BRK	78	96	6
BRK	78	96	7
STR	78	192	0
SI_	78	192	0	96	48	4
STR	78	192	1
SI_	78	192	1	96	48	5
TAP	78	240	2
TAP	78	240	7
BRK	78	288	0
BRK	78	288	1
TAP	79	0	0
STR	79	0	6
SI_	79	0	6	96	48	2
TAP	79	48	6
STR	79	96	0
SI_	79	96	0	96	48	4
TAP	79	96	6
TAP	79	144	0
TAP	79	192	0
TAP	79	192	5
TAP	79	240	5
BRK	79	288	3
BRK	79	288	7
BRK	79	336	1
BRK	79	336	5
TAP	80	48	0
TAP	80	48	1
TAP	80	96	3
HLD	80	96	6	96
TAP	80	192	7
STR	80	240	1
SCR	80	240	1	96	48	4
TAP	80	240	4
STR	80	336	7
SI_	80	336	7	96	48	3
TAP	81	48	2
TAP	81	96	1
TAP	81	144	0
BRK	81	192	5
BRK	81	192	7
BRK	81	240	3
BRK	81	240	4
BRK	81	288	0
BRK	81	288	2
BRK	82	0	3
BST	82	0	7
SI_	82	0	7	96	48	2
STR	82	96	1
SI_	82	96	1	96	48	4
TAP	82	96	7
TAP	82	192	1
STR	82	192	6
SI_	82	192	6	96	48	3
STR	82	288	0
SI_	82	288	0	96	48	5
TAP	82	288	6
TAP	83	0	0
STR	83	0	4
SI_	83	0	4	96	48	7
STR	83	96	3
SI_	83	96	3	96	48	0
TAP	83	96	4
TAP	83	192	3
STR	83	192	7
SF_	83	192	7	96	48	3
TAP	83	288	7
STR	84	0	0
SI_	84	0	0	96	48	3
STR	84	0	7
SCR	84	0	7	96	48	2
BRK	84	96	0
BRK	84	96	7
STR	84	192	0
SCL	84	192	0	96	48	5
STR	84	192	7
SI_	84	192	7	96	48	4
BRK	84	288	0
BRK	84	288	7
BST	85	0	0
SCL	85	0	0	96	48	5
BST	85	0	7
SCR	85	0	7	96	48	2
BST	85	96	0
SSL	85	96	0	96	48	4
BST	85	96	7
SSR	85	96	7	96	48	3
BRK	85	192	0
BRK	85	192	7
TAP	86	0	2
STR	86	0	3
SCR	86	0	3	96	480	7
TAP	86	96	2
TAP	86	192	2
TAP	86	288	2
TAP	87	0	3
TAP	87	96	4
TAP	87	192	5
TAP	87	240	5
TAP	87	288	5
STR	88	0	4
SCL	88	0	4	96	480	0
TAP	88	0	5
TAP	88	96	5
TAP	88	192	5
TAP	88	288	5
TAP	89	0	4
TAP	89	96	3
TAP	89	192	2
TAP	89	240	2
TAP	89	288	2
STR	90	0	4
SUL	90	0	4	96	288	7
TAP	90	96	0
TAP	90	192	1
TAP	90	288	2
STR	91	0	3
SUR	91	0	3	96	288	0
TAP	91	96	7
TAP	91	192	6
TAP	91	288	5
STR	92	0	4
SCR	92	0	4	96	48	7
TAP	92	96	2
STR	92	192	3
SCL	92	192	3	96	48	0
TAP	92	288	5
BST	93	0	2
SI_	93	0	2	96	48	7
BST	93	0	6
SI_	93	0	6	96	48	3
BRK	93	96	2
BRK	93	96	6
BRK	93	192	1
BRK	93	192	5

T_REC_TAP	382
T_REC_BRK	159
T_REC_XTP	0
T_REC_HLD	27
T_REC_XHO	0
T_REC_STR	87
T_REC_BST	26
T_REC_XST	0
T_REC_TTP	0
T_REC_THO	0
T_REC_SLD	113
T_REC_ALL	794
T_NUM_TAP	469
T_NUM_BRK	185
T_NUM_HLD	27
T_NUM_SLD	113
T_NUM_ALL	794
T_JUDGE_TAP	654
T_JUDGE_HLD	80
T_JUDGE_SLD	113
T_JUDGE_ALL	847
TTM_EACHPAIRS	220
TTM_SCR_TAP	234500
TTM_SCR_BRK	481000
TTM_SCR_HLD	27000
TTM_SCR_SLD	169500
TTM_SCR_ALL	912000
TTM_SCR_S	866700
TTM_SCR_SS	893500
TTM_RAT_ACV	10207

