VERSION	0.00.00	1.03.00
FES_MODE	0
BPM_DEF	172.000	172.000	172.000	172.000
MET_DEF	4	4
RESOLUTION	384
CLK_DEF	384
COMPATIBLE_CODE	MA2

BPM	0	0	172.000

HLD	2	0	0	192
HLD	2	192	1	192
HLD	3	0	2	192
HLD	3	192	3	192
TAP	4	0	7
HLD	4	96	7	96
TAP	4	192	6
HLD	4	288	6	96
TAP	5	0	5
HLD	5	96	5	96
TAP	5	192	4
HLD	5	288	4	96
HLD	6	0	0	96
HLD	6	96	1	96
HLD	6	192	2	96
HLD	6	288	3	96
HLD	7	0	7	96
HLD	7	96	6	96
HLD	7	192	5	96
HLD	7	288	4	96
TAP	8	0	3
TAP	8	144	1
TAP	8	144	3
TAP	8	288	0
TAP	8	288	7
TAP	9	0	1
HLD	9	0	6	288
STR	9	288	4
SCL	9	288	4	96	288	5
STR	11	0	5
SCR	11	0	5	96	288	4
TAP	12	0	0
TAP	12	192	1
TAP	13	0	0
TAP	13	96	1
TAP	13	192	2
TAP	13	288	3
TAP	13	288	7
TAP	14	0	5
TAP	14	48	5
TAP	14	96	4
TAP	14	144	6
TAP	14	192	2
TAP	14	240	2
TAP	14	288	3
TAP	14	336	1
STR	15	0	5
SI_	15	0	5	96	48	2
STR	15	96	1
SI_	15	96	1	96	48	5
TAP	15	192	7
TAP	15	240	7
TAP	15	288	7
TAP	16	0	2
TAP	16	48	2
TAP	16	96	3
TAP	16	144	1
TAP	16	192	5
TAP	16	240	5
TAP	16	288	4
TAP	16	336	6
STR	17	0	2
SI_	17	0	2	96	48	5
STR	17	96	6
SI_	17	96	6	96	48	2
TAP	17	192	0
TAP	17	240	0
TAP	17	288	0
TAP	18	0	5
TAP	18	48	5
TAP	18	96	4
TAP	18	144	6
TAP	18	192	2
TAP	18	240	2
TAP	18	288	3
TAP	18	336	1
STR	19	0	5
SI_	19	0	5	96	48	0
STR	19	96	1
SI_	19	96	1	96	48	4
TAP	19	192	7
TAP	19	240	7
TAP	19	288	7
TAP	20	0	2
TAP	20	48	2
TAP	20	96	3
TAP	20	144	1
TAP	20	192	5
TAP	20	240	5
TAP	20	288	4
TAP	20	336	6
TAP	21	0	2
TAP	21	48	2
TAP	21	96	2
TAP	21	96	5
TAP	21	192	0
TAP	21	192	7
TAP	21	240	1
TAP	21	240	6
TAP	21	288	2
TAP	21	288	5
TAP	22	0	0
TAP	22	48	0
TAP	22	96	0
TAP	22	144	0
TAP	22	192	7
TAP	22	240	7
TAP	22	288	7
TAP	22	336	7
TAP	23	0	0
TAP	23	48	0
TAP	23	96	7
TAP	23	144	7
TAP	23	192	0
TAP	23	192	6
TAP	23	240	1
TAP	23	240	5
TAP	23	288	2
TAP	23	288	4
STR	24	0	6
SI_	24	0	6	96	48	4
STR	24	0	7
SI_	24	0	7	96	48	4
STR	24	192	0
SI_	24	192	0	96	48	3
STR	24	192	1
SI_	24	192	1	96	48	3
TAP	25	0	7
TAP	25	48	7
TAP	25	96	0
TAP	25	144	0
TAP	25	192	1
TAP	25	192	7
TAP	25	240	2
TAP	25	240	6
TAP	25	288	3
TAP	25	288	5
STR	26	0	2
SCL	26	0	2	96	48	0
STR	26	0	7
SCL	26	0	7	96	48	5
STR	26	192	0
SCR	26	192	0	96	48	2
STR	26	192	5
SCR	26	192	5	96	48	7
TAP	27	0	2
TAP	27	0	7
TAP	27	96	0
TAP	27	96	5
TAP	27	192	2
TAP	27	192	7
TAP	27	288	0
TAP	27	288	5
TAP	28	0	2
TAP	28	0	4
TAP	28	48	2
TAP	28	96	3
TAP	28	96	5
TAP	28	144	5
TAP	28	192	3
TAP	28	192	4
TAP	28	288	3
TAP	28	288	4
TAP	29	0	6
TAP	29	48	7
TAP	29	96	0
TAP	29	144	1
TAP	29	192	0
TAP	29	192	7
TAP	29	240	0
TAP	29	240	7
TAP	29	288	0
TAP	29	288	7
TAP	30	0	1
TAP	30	0	6
TAP	30	48	1
TAP	30	48	6
TAP	30	96	1
TAP	30	96	6
TAP	30	192	0
TAP	30	192	5
TAP	30	240	0
TAP	30	240	5
TAP	30	288	0
TAP	30	288	5
TAP	31	0	2
TAP	31	0	7
TAP	31	48	2
TAP	31	48	7
TAP	31	96	2
TAP	31	96	7
TAP	31	192	1
TAP	31	192	6
TAP	32	0	0
TAP	32	0	7
TAP	32	96	1
TAP	32	96	6
TAP	32	144	1
TAP	32	144	6
TAP	32	192	1
TAP	32	192	6
TAP	32	288	0
TAP	32	288	7
TAP	33	96	1
TAP	33	96	6
BRK	33	192	1
BRK	33	192	6
STR	34	0	1
SI_	34	0	1	96	48	4
TAP	34	0	5
TAP	34	48	6
TAP	34	96	7
STR	34	192	1
SI_	34	192	1	96	48	4
TAP	34	192	5
TAP	34	240	6
TAP	34	288	7
STR	35	0	1
SI_	35	0	1	96	48	4
TAP	35	0	5
TAP	35	48	6
STR	35	96	7
SI_	35	96	7	96	48	3
STR	35	192	1
SI_	35	192	1	96	48	5
HLD	35	288	7	96
STR	36	0	0
SCR	36	0	0	96	96	3
TAP	36	96	6
STR	36	192	4
SCR	36	192	4	96	96	7
TAP	36	288	2
STR	37	0	0
SCR	37	0	0	96	96	3
TAP	37	96	6
TAP	37	192	4
TAP	37	240	5
TAP	37	288	1
TAP	37	288	6
STR	38	0	4
SCL	38	0	4	96	48	1
TAP	38	0	5
TAP	38	96	5
TAP	38	192	2
STR	38	192	3
SCR	38	192	3	96	48	6
TAP	38	288	2
TAP	39	0	0
TAP	39	48	0
TAP	39	96	7
TAP	39	144	7
TAP	39	192	3
TAP	39	192	6
TAP	39	288	1
TAP	39	288	4
STR	40	0	2
SI_	40	0	2	96	48	0
STR	40	0	7
SI_	40	0	7	96	48	3
TAP	40	192	1
TAP	40	192	5
BRK	40	288	7
STR	41	0	0
SI_	41	0	0	96	48	4
STR	41	0	5
SI_	41	0	5	96	48	7
TAP	41	192	2
TAP	41	192	6
BRK	41	288	0
TAP	42	0	2
STR	42	0	6
SI_	42	0	6	96	48	3
TAP	42	48	1
TAP	42	96	0
TAP	42	192	2
STR	42	192	6
SI_	42	192	6	96	48	3
TAP	42	240	1
TAP	42	288	0
TAP	43	0	2
STR	43	0	6
SI_	43	0	6	96	48	3
TAP	43	48	1
STR	43	96	0
SI_	43	96	0	96	48	4
STR	43	192	6
SI_	43	192	6	96	48	2
HLD	43	288	0	96
STR	44	0	7
SCL	44	0	7	96	96	4
TAP	44	96	1
STR	44	192	3
SCL	44	192	3	96	96	0
TAP	44	288	5
STR	45	0	7
SCL	45	0	7	96	96	4
TAP	45	96	1
TAP	45	192	3
TAP	45	240	2
TAP	45	288	1
TAP	45	288	6
TAP	46	0	2
STR	46	0	3
SCR	46	0	3	96	48	6
TAP	46	96	1
STR	46	192	4
SCL	46	192	4	96	48	1
TAP	46	192	5
TAP	46	288	6
TAP	47	0	7
TAP	47	48	7
TAP	47	96	0
TAP	47	144	0
TAP	47	192	1
TAP	47	192	4
TAP	47	288	3
TAP	47	288	6
STR	48	0	0
SI_	48	0	0	96	48	4
STR	48	0	5
SI_	48	0	5	96	48	7
TAP	48	192	2
TAP	48	192	6
BRK	48	288	0
STR	49	0	2
SI_	49	0	2	96	48	0
STR	49	0	7
SI_	49	0	7	96	48	3
TAP	49	192	1
HLD	49	192	5	96
STR	49	288	4
SCL	49	288	4	96	288	5
HLD	51	0	6	96
STR	51	96	4
SI_	51	96	4	96	48	1
TAP	51	288	2
TAP	51	288	3
TAP	52	0	3
HLD	52	0	4	192
TAP	52	48	3
TAP	52	96	3
HLD	52	192	0	384
TAP	52	288	4
TAP	53	0	5
TAP	53	48	5
TAP	53	96	5
HLD	53	192	7	384
TAP	53	288	0
TAP	54	0	1
TAP	54	48	1
TAP	54	96	1
HLD	54	192	0	384
TAP	54	288	7
TAP	55	0	6
TAP	55	48	6
TAP	55	96	6
HLD	55	192	4	384
TAP	55	288	0
TAP	56	0	1
TAP	56	48	1
TAP	56	96	1
TAP	56	192	3
TAP	56	288	2
STR	57	0	1
SCR	57	0	1	96	48	4
TAP	57	0	5
TAP	57	96	6
STR	57	192	1
SCR	57	192	1	96	48	4
TAP	57	192	5
TAP	57	288	6
TAP	58	0	3
TAP	58	0	4
TAP	58	96	2
TAP	58	96	5
STR	58	192	1
SI_	58	192	1	96	48	4
STR	58	192	6
SI_	58	192	6	96	48	3
STR	59	0	1
SCR	59	0	1	96	48	4
TAP	59	0	5
STR	59	96	7
SI_	59	96	7	96	48	3
TAP	59	192	0
STR	60	0	7
SSL	60	0	7	96	192	3
SSR	60	0	7	96	192	3
STR	61	0	3
SI_	61	0	3	96	48	0
STR	61	96	4
SI_	61	96	4	96	48	7
STR	61	192	3
SI_	61	192	3	96	48	0
STR	61	288	4
SI_	61	288	4	96	48	7
TAP	62	0	0
TAP	62	48	0
STR	62	96	0
SCR	62	96	0	96	96	4
TAP	62	192	5
TAP	62	288	6
STR	63	0	7
SI_	63	0	7	96	48	3
STR	63	96	0
SI_	63	96	0	96	48	4
TAP	63	192	7
STR	63	288	4
SI_	63	288	4	96	48	0
TAP	63	288	5
TAP	64	0	7
TAP	64	96	2
STR	64	96	3
SI_	64	96	3	96	48	7
TAP	64	192	0
STR	64	288	4
SI_	64	288	4	96	48	0
TAP	64	288	5
TAP	65	0	7
TAP	65	96	2
STR	65	96	3
SI_	65	96	3	96	48	7
TAP	65	192	0
TAP	65	288	4
STR	65	288	5
SI_	65	288	5	96	48	2
STR	66	0	0
SI_	66	0	0	96	48	3
STR	66	96	7
SI_	66	96	7	96	48	4
STR	66	192	1
SI_	66	192	1	96	48	6
STR	66	288	5
SI_	66	288	5	96	48	3
STR	67	0	2
SI_	67	0	2	96	48	6
STR	67	96	7
SI_	67	96	7	96	48	1
HLD	67	192	2	192
BRK	68	0	7
HLD	69	0	3	96
TAP	69	0	4
HLD	69	96	4	96
TAP	69	192	3
TAP	69	216	4
TAP	69	240	3
TAP	69	288	1
TAP	69	288	6
TAP	70	0	3
STR	70	0	6
SI_	70	0	6	96	48	2
TAP	70	48	1
TAP	70	96	0
TAP	70	192	3
STR	70	192	6
SI_	70	192	6	96	48	2
TAP	70	240	1
TAP	70	288	0
TAP	71	0	3
STR	71	0	6
SI_	71	0	6	96	48	2
TAP	71	48	1
STR	71	96	0
SI_	71	96	0	96	48	5
STR	71	192	4
SI_	71	192	4	96	48	7
HLD	71	288	0	96
STR	72	0	7
SCL	72	0	7	96	96	4
TAP	72	48	1
TAP	72	96	1
STR	72	192	3
SCL	72	192	3	96	96	0
TAP	72	240	5
TAP	72	288	5
STR	73	0	7
SCL	73	0	7	96	96	4
TAP	73	48	1
TAP	73	96	1
TAP	73	192	3
TAP	73	240	2
TAP	73	288	1
TAP	73	288	6
TAP	74	0	2
STR	74	0	3
SCR	74	0	3	96	48	6
TAP	74	96	0
STR	74	192	4
SCL	74	192	4	96	48	1
TAP	74	192	5
TAP	74	288	7
TAP	75	0	7
TAP	75	48	7
TAP	75	96	0
TAP	75	144	0
TAP	75	192	1
TAP	75	192	4
TAP	75	288	3
TAP	75	288	6
STR	76	0	1
SI_	76	0	1	96	48	3
STR	76	0	4
SI_	76	0	4	96	48	0
TAP	76	192	2
TAP	76	192	6
BRK	76	288	0
STR	77	0	3
SI_	77	0	3	96	48	7
STR	77	0	6
SI_	77	0	6	96	48	4
TAP	77	192	1
TAP	77	192	5
BRK	77	288	7
STR	78	0	1
SI_	78	0	1	96	48	5
TAP	78	0	4
TAP	78	48	6
TAP	78	96	7
STR	78	192	1
SI_	78	192	1	96	48	5
TAP	78	192	4
TAP	78	240	6
TAP	78	288	7
STR	79	0	1
SI_	79	0	1	96	48	5
TAP	79	0	4
TAP	79	48	6
STR	79	96	7
SI_	79	96	7	96	48	2
STR	79	192	3
SI_	79	192	3	96	48	0
HLD	79	288	7	96
STR	80	0	0
SCR	80	0	0	96	96	3
TAP	80	48	6
TAP	80	96	6
STR	80	192	4
SCR	80	192	4	96	96	7
TAP	80	240	2
TAP	80	288	2
STR	81	0	0
SCR	81	0	0	96	96	3
TAP	81	48	6
TAP	81	96	6
TAP	81	192	4
TAP	81	240	5
TAP	81	288	1
TAP	81	288	6
TAP	82	0	4
TAP	82	0	5
TAP	82	96	2
TAP	82	96	3
TAP	82	192	4
TAP	82	192	6
TAP	82	288	1
TAP	82	288	3
TAP	83	0	0
TAP	83	48	0
TAP	83	96	7
TAP	83	144	7
TAP	83	192	3
TAP	83	192	6
TAP	83	288	1
TAP	83	288	4
STR	84	0	3
SI_	84	0	3	96	48	7
STR	84	0	6
SI_	84	0	6	96	48	4
STR	84	192	1
SI_	84	192	1	96	48	3
STR	84	192	4
SI_	84	192	4	96	48	0
TAP	85	0	3
STR	85	0	6
SI_	85	0	6	96	48	2
STR	85	96	0
SI_	85	96	0	96	48	4
BRK	85	192	7
STR	86	0	5
SCR	86	0	5	96	480	3
TAP	86	192	4
TAP	87	0	4
TAP	87	192	4
TAP	87	288	3
STR	88	0	2
SCL	88	0	2	96	480	4
TAP	88	192	3
TAP	89	0	3
TAP	89	192	3
TAP	89	288	4
STR	90	0	5
SCR	90	0	5	96	480	3
TAP	90	192	4
TAP	91	0	4
TAP	91	192	4
TAP	91	288	3
TAP	92	0	2
TAP	92	96	3
TAP	92	192	5
TAP	92	288	4
STR	93	0	1
SI_	93	0	1	96	48	6
STR	93	0	5
SI_	93	0	5	96	48	2
BRK	93	192	0
BRK	93	192	4

T_REC_TAP	355
T_REC_BRK	11
T_REC_XTP	0
T_REC_HLD	31
T_REC_XHO	0
T_REC_STR	104
T_REC_BST	0
T_REC_XST	0
T_REC_TTP	0
T_REC_THO	0
T_REC_SLD	105
T_REC_ALL	606
T_NUM_TAP	459
T_NUM_BRK	11
T_NUM_HLD	31
T_NUM_SLD	105
T_NUM_ALL	606
T_JUDGE_TAP	470
T_JUDGE_HLD	102
T_JUDGE_SLD	105
T_JUDGE_ALL	677
TTM_EACHPAIRS	112
TTM_SCR_TAP	229500
TTM_SCR_BRK	28600
TTM_SCR_HLD	31000
TTM_SCR_SLD	157500
TTM_SCR_ALL	446600
TTM_SCR_S	432150
TTM_SCR_SS	445500
TTM_RAT_ACV	10024

