VERSION	0.00.00	1.03.00
FES_MODE	0
BPM_DEF	172.000	172.000	172.000	172.000
MET_DEF	4	4
RESOLUTION	384
CLK_DEF	384
COMPATIBLE_CODE	MA2

BPM	0	0	172.000

HLD	2	0	1	192
BRK	2	0	6
HLD	2	192	2	192
HLD	3	0	3	192
TAP	3	192	4
HLD	4	0	5	480
TAP	4	96	4
TAP	4	192	4
TAP	4	288	4
TAP	5	0	4
TAP	5	96	4
TAP	5	192	2
TAP	5	192	3
TAP	5	288	2
TAP	5	288	3
HLD	6	0	5	576
TAP	6	96	4
TAP	6	192	4
TAP	6	288	3
TAP	7	0	4
TAP	7	96	4
TAP	7	192	4
TAP	7	288	3
TAP	7	288	4
HLD	8	0	2	144
TAP	8	0	5
HLD	8	144	5	144
TAP	8	288	4
BRK	9	0	3
BRK	9	0	7
TAP	10	0	3
STR	10	0	5
SCR	10	0	5	96	672	3
TAP	12	0	0
TAP	12	192	1
TAP	13	0	0
TAP	13	96	1
TAP	13	192	2
BRK	13	288	3
BRK	13	288	7
TAP	14	0	6
TAP	14	96	0
TAP	14	192	2
TAP	14	288	1
TAP	14	288	3
TAP	15	0	4
TAP	15	96	3
TAP	15	96	5
TAP	15	192	2
TAP	15	240	2
TAP	15	288	3
TAP	16	0	1
TAP	16	96	7
TAP	16	192	5
STR	16	288	4
SCL	16	288	4	96	96	1
TAP	16	288	6
TAP	17	192	1
TAP	17	240	1
TAP	17	288	0
TAP	17	288	1
TAP	18	0	1
TAP	18	96	7
TAP	18	192	5
TAP	18	288	4
TAP	18	288	6
TAP	19	0	3
TAP	19	96	2
TAP	19	96	4
TAP	19	192	5
TAP	19	240	5
TAP	19	288	4
TAP	20	0	6
TAP	20	96	0
TAP	20	192	2
TAP	20	288	1
STR	20	288	3
SCR	20	288	3	96	96	6
TAP	21	192	6
TAP	21	240	6
TAP	21	288	6
TAP	21	288	7
TAP	22	0	2
HLD	22	0	5	96
TAP	22	96	4
HLD	22	192	2	96
TAP	22	192	5
TAP	22	288	3
HLD	23	0	1	96
TAP	23	96	0
TAP	23	192	0
TAP	23	192	1
TAP	23	240	0
TAP	23	240	1
BRK	23	288	0
BRK	23	288	1
HLD	24	0	2	96
TAP	24	0	5
TAP	24	96	3
TAP	24	192	2
HLD	24	192	5	96
TAP	24	288	4
HLD	25	0	6	96
TAP	25	96	7
TAP	25	192	6
TAP	25	192	7
TAP	25	240	6
TAP	25	240	7
BRK	25	288	6
BRK	25	288	7
HLD	26	0	1	288
TAP	26	96	0
TAP	26	192	2
TAP	26	288	0
HLD	27	0	6	288
TAP	27	96	7
TAP	27	192	5
TAP	27	288	7
TAP	28	0	4
TAP	28	0	5
TAP	28	96	3
TAP	28	96	4
TAP	28	192	2
TAP	28	192	3
TAP	28	288	3
STR	28	288	4
SCR	28	288	4	96	192	3
TAP	29	288	0
TAP	29	288	7
TAP	30	0	0
TAP	30	0	1
TAP	30	48	0
TAP	30	48	1
TAP	30	96	0
TAP	30	96	1
TAP	30	192	6
TAP	30	192	7
TAP	30	240	6
TAP	30	240	7
TAP	30	288	6
TAP	30	288	7
TAP	31	0	0
TAP	31	0	1
TAP	31	48	0
TAP	31	48	1
TAP	31	96	0
TAP	31	96	1
BRK	31	192	2
BRK	31	192	7
TAP	32	0	1
TAP	32	0	6
TAP	32	96	4
TAP	32	96	5
TAP	32	144	4
TAP	32	144	5
TAP	32	192	4
TAP	32	192	5
TAP	32	288	2
STR	32	288	3
SI_	32	288	3	96	48	7
TAP	33	96	0
BRK	33	192	2
BRK	33	192	6
STR	34	0	3
SI_	34	0	3	96	36	7
STR	34	0	6
SI_	34	0	6	96	24	4
STR	34	192	3
SI_	34	192	3	96	36	7
STR	34	192	6
SI_	34	192	6	96	24	4
STR	35	0	3
SI_	35	0	3	96	36	7
STR	35	0	6
SI_	35	0	6	96	24	4
TAP	35	192	3
TAP	35	192	6
TAP	35	288	1
TAP	35	288	5
STR	36	0	2
SI_	36	0	2	96	48	7
TAP	36	0	3
TAP	36	192	4
STR	36	192	5
SI_	36	192	5	96	48	0
STR	37	0	2
SI_	37	0	2	96	48	7
STR	37	0	3
SI_	37	0	3	96	48	6
BRK	37	192	0
BRK	37	192	5
BRK	37	288	2
BRK	37	288	7
TAP	38	0	0
HLD	38	0	1	192
TAP	38	96	2
TAP	38	192	4
TAP	38	288	3
TAP	38	288	4
TAP	39	0	4
HLD	39	0	5	192
TAP	39	96	6
TAP	39	192	0
TAP	39	288	1
TAP	39	288	6
HLD	40	0	2	72
TAP	40	72	3
TAP	40	144	1
TAP	40	144	4
TAP	40	192	1
TAP	40	192	4
BRK	40	288	7
HLD	41	0	5	72
TAP	41	72	4
TAP	41	144	3
TAP	41	144	6
TAP	41	192	3
TAP	41	192	6
BRK	41	288	0
STR	42	0	1
SI_	42	0	1	96	24	3
STR	42	0	4
SI_	42	0	4	96	36	0
STR	42	192	1
SI_	42	192	1	96	24	3
STR	42	192	4
SI_	42	192	4	96	36	0
STR	43	0	1
SI_	43	0	1	96	24	3
STR	43	0	4
SI_	43	0	4	96	36	0
TAP	43	192	1
TAP	43	192	4
TAP	43	288	3
TAP	43	288	6
TAP	44	0	4
STR	44	0	5
SI_	44	0	5	96	48	0
STR	44	192	2
SI_	44	192	2	96	48	7
TAP	44	192	3
STR	45	0	4
SI_	45	0	4	96	48	1
STR	45	0	5
SI_	45	0	5	96	48	0
BRK	45	192	2
BRK	45	192	7
BRK	45	288	0
BRK	45	288	5
HLD	46	0	6	192
TAP	46	0	7
TAP	46	96	5
TAP	46	192	4
TAP	46	288	3
TAP	46	288	4
HLD	47	0	2	192
TAP	47	0	3
TAP	47	96	1
TAP	47	192	0
TAP	47	288	1
TAP	47	288	6
HLD	48	0	2	72
TAP	48	72	3
TAP	48	144	1
TAP	48	144	4
TAP	48	192	1
TAP	48	192	4
BRK	48	288	7
HLD	49	0	5	72
TAP	49	72	4
TAP	49	144	3
TAP	49	144	6
TAP	49	192	3
TAP	49	192	6
BST	49	288	0
SCR	49	288	0	96	288	6
STR	51	0	1
SI_	51	0	1	96	48	3
STR	51	0	6
SI_	51	0	6	96	48	4
TAP	51	192	1
TAP	51	192	6
TAP	51	288	3
TAP	51	288	4
TAP	52	0	2
HLD	52	0	4	192
TAP	52	96	1
HLD	52	192	0	384
TAP	53	0	5
TAP	53	96	6
HLD	53	192	7	384
TAP	54	0	0
TAP	54	96	0
HLD	54	192	0	384
TAP	55	0	6
TAP	55	96	5
HLD	55	192	4	480
TAP	56	0	2
TAP	56	96	2
TAP	56	192	1
TAP	56	288	1
STR	57	0	1
SCR	57	0	1	96	48	4
HLD	57	0	5	288
STR	57	192	1
SCR	57	192	1	96	48	4
TAP	58	0	4
TAP	58	0	5
TAP	58	96	3
TAP	58	96	4
HLD	58	192	2	96
HLD	58	192	5	96
STR	59	0	1
SCR	59	0	1	96	48	4
HLD	59	0	6	96
BRK	59	192	1
BRK	59	192	6
TAP	60	0	3
TAP	60	0	4
TAP	60	96	1
TAP	60	96	3
TAP	60	192	3
TAP	60	192	4
TAP	60	288	4
TAP	60	288	6
HLD	61	0	5	96
HLD	61	96	6	96
HLD	61	192	7	96
TAP	61	288	0
TAP	62	0	1
TAP	62	0	6
TAP	62	96	4
TAP	62	96	5
TAP	62	192	2
TAP	62	192	3
TAP	62	288	1
TAP	62	288	4
TAP	63	0	6
BST	63	0	7
SF_	63	0	7	96	96	3
HLD	64	0	2	96
TAP	64	0	4
TAP	64	96	3
TAP	64	192	3
HLD	64	192	5	96
TAP	64	288	4
HLD	65	0	1	96
TAP	65	0	3
TAP	65	96	2
TAP	65	192	4
HLD	65	192	6	96
TAP	65	288	5
HLD	66	0	1	96
HLD	66	96	3	96
HLD	66	192	4	96
TAP	66	288	6
STR	67	0	7
SI_	67	0	7	96	48	3
STR	67	96	0
SI_	67	96	0	96	48	4
HLD	67	192	7	192
BRK	68	0	0
TAP	69	0	4
TAP	69	0	5
TAP	69	96	2
TAP	69	96	3
TAP	69	192	5
TAP	69	240	4
BRK	69	288	3
BRK	69	288	6
STR	70	0	0
SI_	70	0	0	96	24	6
STR	70	0	5
SI_	70	0	5	96	24	3
STR	70	192	0
SI_	70	192	0	96	24	6
STR	70	192	5
SI_	70	192	5	96	24	3
STR	71	0	0
SI_	71	0	0	96	24	6
STR	71	0	5
SI_	71	0	5	96	24	3
TAP	71	192	0
TAP	71	192	5
TAP	71	288	2
TAP	71	288	7
TAP	72	0	4
STR	72	0	5
SCR	72	0	5	96	48	0
STR	72	192	2
SCL	72	192	2	96	48	7
TAP	72	192	3
STR	73	0	4
SCL	73	0	4	96	48	1
STR	73	0	5
SCR	73	0	5	96	48	0
BRK	73	192	2
BRK	73	192	7
BRK	73	288	0
BRK	73	288	5
TAP	74	0	1
HLD	74	0	6	192
TAP	74	96	4
TAP	74	192	7
TAP	74	288	0
TAP	74	288	5
HLD	75	0	1	192
TAP	75	0	6
TAP	75	96	3
TAP	75	192	0
TAP	75	288	2
TAP	75	288	7
HLD	76	0	1	72
HLD	76	72	2	72
TAP	76	144	3
TAP	76	192	3
TAP	76	192	4
BRK	76	288	7
HLD	77	0	6	72
HLD	77	72	5	72
TAP	77	144	4
TAP	77	192	3
TAP	77	192	4
BRK	77	288	0
STR	78	0	2
SI_	78	0	2	96	24	4
STR	78	0	7
SI_	78	0	7	96	36	2
STR	78	192	2
SI_	78	192	2	96	24	4
STR	78	192	7
SI_	78	192	7	96	36	2
STR	79	0	2
SI_	79	0	2	96	24	4
STR	79	0	7
SI_	79	0	7	96	36	2
TAP	79	192	2
TAP	79	192	7
TAP	79	288	0
TAP	79	288	5
STR	80	0	2
SCL	80	0	2	96	48	7
TAP	80	0	3
TAP	80	192	4
STR	80	192	5
SCR	80	192	5	96	48	0
STR	81	0	2
SCL	81	0	2	96	48	7
STR	81	0	3
SCR	81	0	3	96	48	6
BRK	81	192	0
BRK	81	192	5
BRK	81	288	2
BRK	81	288	7
TAP	82	0	4
HLD	82	0	5	96
TAP	82	96	4
HLD	82	192	3	96
TAP	82	192	4
TAP	82	288	4
TAP	83	0	4
HLD	83	0	6	96
TAP	83	96	4
HLD	83	192	2	96
TAP	83	192	4
TAP	83	288	4
STR	84	0	1
SI_	84	0	1	96	48	4
STR	84	96	7
SI_	84	96	7	96	48	3
STR	84	192	0
SI_	84	192	0	96	48	4
TAP	84	288	6
BRK	85	0	3
BRK	85	0	6
BRK	85	96	1
BRK	85	96	5
BRK	85	192	3
BRK	85	192	7
HLD	86	0	1	192
HLD	86	192	3	192
HLD	87	0	4	192
TAP	87	192	5
TAP	87	288	5
HLD	88	0	5	192
HLD	88	192	7	192
TAP	89	0	0
TAP	89	96	1
TAP	89	192	2
TAP	89	288	3
TAP	89	288	4
TAP	90	0	2
HLD	90	0	5	192
TAP	90	192	4
TAP	90	288	3
TAP	90	288	4
HLD	91	0	2	192
TAP	91	0	5
TAP	91	192	3
TAP	91	288	1
TAP	91	288	4
HLD	92	0	0	288
TAP	92	0	7
HLD	92	192	7	96
STR	93	0	1
SI_	93	0	1	96	48	4
STR	93	0	6
SI_	93	0	6	96	48	3
BRK	93	192	2
BRK	93	192	6

T_REC_TAP	283
T_REC_BRK	47
T_REC_XTP	0
T_REC_HLD	62
T_REC_XHO	0
T_REC_STR	57
T_REC_BST	2
T_REC_XST	0
T_REC_TTP	0
T_REC_THO	0
T_REC_SLD	59
T_REC_ALL	510
T_NUM_TAP	340
T_NUM_BRK	49
T_NUM_HLD	62
T_NUM_SLD	59
T_NUM_ALL	510
T_JUDGE_TAP	389
T_JUDGE_HLD	222
T_JUDGE_SLD	59
T_JUDGE_ALL	670
TTM_EACHPAIRS	150
TTM_SCR_TAP	170000
TTM_SCR_BRK	127400
TTM_SCR_HLD	62000
TTM_SCR_SLD	88500
TTM_SCR_ALL	447900
TTM_SCR_S	429750
TTM_SCR_SS	443000
TTM_RAT_ACV	10110

