VERSION	0.00.00	1.03.00
FES_MODE	0
BPM_DEF	172.000	172.000	172.000	172.000
MET_DEF	4	4
RESOLUTION	384
CLK_DEF	384
COMPATIBLE_CODE	MA2

BPM	0	0	172.000

HLD	2	0	2	384
TAP	3	192	3
TAP	3	192	4
TAP	4	0	5
TAP	4	192	5
TAP	5	0	4
TAP	5	192	3
TAP	5	192	4
TAP	6	0	2
TAP	6	96	2
TAP	6	192	3
TAP	7	0	4
TAP	7	96	4
TAP	7	192	5
TAP	8	0	6
TAP	8	96	6
TAP	8	192	7
STR	9	0	0
SXL	9	0	0	96	480	3
STR	9	0	7
SXR	9	0	7	96	480	4
TAP	11	0	5
TAP	11	192	6
TAP	11	192	7
BRK	12	0	0
BRK	12	192	1
TAP	13	0	0
TAP	13	96	1
TAP	13	192	2
BRK	13	288	3
BRK	13	288	4
TAP	14	0	5
TAP	14	96	4
TAP	14	192	2
TAP	14	288	3
TAP	15	0	5
TAP	15	96	4
TAP	15	192	2
TAP	15	192	3
TAP	16	0	2
TAP	16	96	3
TAP	16	192	5
TAP	16	288	4
TAP	17	0	2
TAP	17	96	2
TAP	17	96	3
TAP	17	192	1
TAP	17	192	4
TAP	18	0	1
TAP	18	96	0
TAP	18	192	6
TAP	18	288	7
TAP	19	0	1
TAP	19	96	0
TAP	19	192	6
TAP	19	192	7
TAP	20	0	6
TAP	20	96	7
TAP	20	192	1
TAP	20	288	0
TAP	21	0	6
TAP	21	96	6
TAP	21	96	7
TAP	21	192	0
TAP	21	192	5
HLD	22	0	0	288
HLD	22	192	7	96
TAP	23	0	0
TAP	23	96	7
BRK	23	192	0
BRK	23	192	7
BRK	23	288	0
BRK	23	288	7
HLD	24	0	7	288
HLD	24	192	0	96
TAP	25	0	7
TAP	25	96	0
BRK	25	192	0
BRK	25	192	7
BRK	25	288	0
BRK	25	288	7
TAP	26	0	6
TAP	26	96	5
TAP	26	192	4
TAP	26	288	3
TAP	27	0	4
TAP	27	96	5
TAP	27	192	3
TAP	27	192	6
TAP	28	0	1
TAP	28	96	2
TAP	28	192	3
TAP	28	288	4
TAP	29	0	3
TAP	29	96	2
TAP	29	192	1
TAP	29	192	4
TAP	30	0	0
TAP	30	0	7
TAP	30	96	0
TAP	30	96	7
TAP	30	192	0
TAP	30	192	7
TAP	30	288	0
TAP	30	288	7
TAP	31	0	0
TAP	31	0	7
TAP	31	96	0
TAP	31	96	7
TAP	31	192	1
TAP	31	192	6
HLD	32	0	0	96
HLD	32	0	7	96
TAP	32	192	0
TAP	32	192	7
TAP	32	288	0
TAP	32	288	7
TAP	33	96	0
TAP	33	96	7
TAP	33	192	1
TAP	33	192	6
TAP	34	0	2
TAP	34	0	3
TAP	34	96	1
TAP	34	192	2
TAP	34	192	3
TAP	34	288	0
TAP	35	0	2
TAP	35	0	3
TAP	35	96	0
TAP	35	192	1
TAP	35	192	7
TAP	36	0	5
TAP	36	96	4
TAP	36	96	5
TAP	36	192	2
TAP	36	288	2
TAP	36	288	3
TAP	37	0	5
TAP	37	96	3
TAP	37	96	4
TAP	37	192	2
TAP	37	192	5
TAP	38	0	2
TAP	38	96	1
TAP	38	192	0
TAP	38	192	7
TAP	38	288	1
TAP	38	288	6
TAP	39	0	5
TAP	39	96	6
TAP	39	192	0
TAP	39	192	7
TAP	39	288	1
TAP	39	288	6
BRK	40	0	6
BRK	40	0	7
BRK	40	96	0
BRK	40	96	1
BRK	40	192	2
BRK	40	192	7
BRK	41	0	0
BRK	41	0	1
BRK	41	96	6
BRK	41	96	7
BRK	41	192	0
BRK	41	192	5
TAP	42	0	4
TAP	42	0	5
TAP	42	96	6
TAP	42	192	4
TAP	42	192	5
TAP	42	288	7
TAP	43	0	4
TAP	43	0	5
TAP	43	96	7
TAP	43	192	0
TAP	43	192	6
TAP	44	0	2
TAP	44	96	2
TAP	44	96	3
TAP	44	192	5
TAP	44	288	4
TAP	44	288	5
TAP	45	0	2
TAP	45	96	3
TAP	45	96	4
TAP	45	192	2
TAP	45	192	5
TAP	46	0	5
TAP	46	96	6
TAP	46	192	0
TAP	46	192	7
TAP	46	288	1
TAP	46	288	6
TAP	47	0	2
TAP	47	96	1
TAP	47	192	0
TAP	47	192	7
TAP	47	288	1
TAP	47	288	6
BRK	48	0	0
BRK	48	0	1
BRK	48	96	6
BRK	48	96	7
BRK	48	192	0
BRK	48	192	5
BRK	49	0	6
BRK	49	0	7
BRK	49	96	0
BRK	49	96	1
BRK	49	192	2
BRK	49	192	7
STR	49	288	0
SI_	49	288	0	96	192	5
STR	49	288	1
SI_	49	288	1	96	192	4
TAP	51	0	2
TAP	51	0	3
TAP	51	192	0
TAP	51	192	1
TAP	52	0	2
HLD	52	192	1	192
TAP	53	0	0
TAP	53	192	7
TAP	54	0	1
HLD	54	192	1	192
TAP	55	0	3
TAP	55	192	4
STR	56	0	1
SCR	56	0	1	96	144	4
STR	57	0	1
SCR	57	0	1	96	144	4
TAP	58	0	4
TAP	58	0	5
TAP	58	192	6
TAP	58	192	7
STR	59	0	6
SCL	59	0	6	96	144	3
TAP	60	0	2
TAP	60	96	2
TAP	60	96	3
TAP	60	192	4
STR	60	288	3
SXR	60	288	3	96	288	0
STR	60	288	4
SXL	60	288	4	96	288	7
TAP	62	0	6
TAP	62	96	6
TAP	62	96	7
TAP	62	192	0
TAP	62	288	0
TAP	62	288	7
STR	63	0	0
SI_	63	0	0	96	192	3
SI_	63	0	0	96	192	5
TAP	64	0	6
TAP	64	192	4
TAP	64	192	5
TAP	65	0	2
TAP	65	0	3
TAP	65	192	1
TAP	66	0	5
TAP	66	96	4
TAP	66	192	3
TAP	66	288	2
TAP	67	0	0
TAP	67	0	7
TAP	67	96	0
TAP	67	96	7
HLD	67	192	0	96
HLD	67	192	7	96
BRK	68	0	1
BRK	68	0	6
TAP	70	0	4
TAP	70	0	5
TAP	70	96	6
TAP	70	96	7
TAP	70	192	4
TAP	70	192	5
TAP	70	288	0
TAP	70	288	7
TAP	71	0	4
TAP	71	0	5
TAP	71	96	6
TAP	71	96	7
TAP	71	192	0
TAP	71	192	5
TAP	72	0	2
TAP	72	96	1
TAP	72	96	3
TAP	72	192	5
TAP	72	288	4
TAP	72	288	6
TAP	73	0	2
TAP	73	0	5
TAP	73	96	3
TAP	73	96	4
TAP	73	192	2
TAP	73	192	5
TAP	74	0	4
TAP	74	96	5
TAP	74	192	6
TAP	74	192	7
TAP	74	288	0
TAP	74	288	5
TAP	75	0	3
TAP	75	96	2
TAP	75	192	0
TAP	75	192	1
TAP	75	288	2
TAP	75	288	7
BRK	76	0	0
BRK	76	0	1
BRK	76	96	6
BRK	76	96	7
BRK	76	192	0
BRK	76	192	5
BRK	77	0	6
BRK	77	0	7
BRK	77	96	0
BRK	77	96	1
BRK	77	192	2
BRK	77	192	7
TAP	78	0	2
TAP	78	0	3
TAP	78	96	0
TAP	78	96	1
TAP	78	192	2
TAP	78	192	3
TAP	78	288	0
TAP	78	288	7
TAP	79	0	2
TAP	79	0	3
TAP	79	96	0
TAP	79	96	1
TAP	79	192	2
TAP	79	192	7
TAP	80	0	5
TAP	80	96	4
TAP	80	96	6
TAP	80	192	2
TAP	80	288	1
TAP	80	288	3
TAP	81	0	2
TAP	81	0	5
TAP	81	96	3
TAP	81	96	4
TAP	81	192	2
TAP	81	192	5
TAP	82	0	3
TAP	82	96	2
TAP	82	192	0
TAP	82	192	1
TAP	82	288	2
TAP	82	288	7
TAP	83	0	4
TAP	83	96	5
TAP	83	192	6
TAP	83	192	7
TAP	83	288	0
TAP	83	288	5
TAP	84	0	3
TAP	84	0	4
TAP	84	96	2
TAP	84	96	5
TAP	84	192	1
TAP	84	192	6
TAP	84	288	0
TAP	84	288	7
BRK	85	0	1
BRK	85	0	6
BRK	85	96	1
BRK	85	96	6
BRK	85	192	1
BRK	85	192	6
HLD	86	0	1	192
HLD	86	192	2	192
HLD	87	0	3	192
TAP	87	192	4
HLD	88	0	1	192
HLD	88	192	2	192
TAP	89	0	3
TAP	89	192	3
TAP	89	192	4
HLD	90	0	6	192
HLD	90	192	5	192
HLD	91	0	4	192
TAP	91	192	3
HLD	92	0	6	192
TAP	92	192	5
TAP	93	0	4
TAP	93	96	3
TAP	93	96	4
BRK	93	192	1
BRK	93	192	6

T_REC_TAP	297
T_REC_BRK	58
T_REC_XTP	0
T_REC_HLD	20
T_REC_XHO	0
T_REC_STR	10
T_REC_BST	0
T_REC_XST	0
T_REC_TTP	0
T_REC_THO	0
T_REC_SLD	11
T_REC_ALL	396
T_NUM_TAP	307
T_NUM_BRK	58
T_NUM_HLD	20
T_NUM_SLD	11
T_NUM_ALL	396
T_JUDGE_TAP	365
T_JUDGE_HLD	76
T_JUDGE_SLD	11
T_JUDGE_ALL	452
TTM_EACHPAIRS	128
TTM_SCR_TAP	153500
TTM_SCR_BRK	150800
TTM_SCR_HLD	20000
TTM_SCR_SLD	16500
TTM_SCR_ALL	340800
TTM_SCR_S	324950
TTM_SCR_SS	335000
TTM_RAT_ACV	10173

