VERSION	0.00.00	1.03.00
FES_MODE	0
BPM_DEF	172.000	172.000	172.000	172.000
MET_DEF	4	4
RESOLUTION	384
CLK_DEF	384
COMPATIBLE_CODE	MA2

BPM	0	0	172.000

TAP	12	0	0
TAP	12	192	0
TAP	13	0	7
TAP	13	96	7
BRK	13	192	7
TAP	14	0	0
TAP	14	192	0
TAP	15	0	1
TAP	15	96	1
TAP	15	192	1
TAP	16	0	2
TAP	16	192	2
TAP	17	0	3
TAP	17	0	4
TAP	17	96	3
TAP	17	96	4
TAP	17	192	3
TAP	17	192	4
TAP	18	0	4
TAP	18	192	4
TAP	19	0	5
TAP	19	96	5
TAP	19	192	5
TAP	20	0	6
TAP	20	192	6
TAP	21	0	0
TAP	21	0	7
TAP	21	96	0
TAP	21	96	7
BRK	21	192	0
BRK	21	192	7
TAP	22	0	0
TAP	22	192	7
TAP	23	0	0
TAP	23	96	0
TAP	23	192	0
TAP	23	192	7
TAP	24	0	7
TAP	24	192	0
TAP	25	0	7
TAP	25	96	7
TAP	25	192	0
TAP	25	192	7
STR	26	0	0
SI_	26	0	0	96	288	3
STR	28	0	7
SI_	28	0	7	96	288	4
TAP	30	0	2
TAP	30	0	3
TAP	30	192	2
TAP	30	192	3
TAP	31	0	2
TAP	31	0	3
TAP	31	96	2
TAP	31	96	3
TAP	31	192	2
TAP	31	192	3
TAP	32	0	4
TAP	32	0	5
TAP	32	192	4
TAP	32	192	5
TAP	33	0	4
TAP	33	0	5
TAP	33	96	4
TAP	33	96	5
BRK	33	192	4
BRK	33	192	5
TAP	34	0	3
TAP	34	96	3
TAP	34	192	3
TAP	35	0	2
TAP	35	96	2
TAP	35	192	2
TAP	36	0	1
TAP	36	96	1
TAP	36	192	1
TAP	37	0	0
TAP	37	96	7
TAP	37	192	0
HLD	38	0	7	192
HLD	39	0	6	192
TAP	40	0	4
TAP	40	0	5
TAP	40	96	4
TAP	40	96	5
TAP	40	192	4
TAP	40	192	5
TAP	41	0	2
TAP	41	0	3
TAP	41	96	2
TAP	41	96	3
TAP	41	192	2
TAP	41	192	3
TAP	42	0	4
TAP	42	96	4
TAP	42	192	4
TAP	43	0	5
TAP	43	96	5
TAP	43	192	5
TAP	44	0	6
TAP	44	96	6
TAP	44	192	6
TAP	45	0	7
TAP	45	96	0
TAP	45	192	7
HLD	46	0	0	192
HLD	47	0	1	192
TAP	48	0	2
TAP	48	0	3
TAP	48	96	2
TAP	48	96	3
TAP	48	192	2
TAP	48	192	3
TAP	49	0	4
TAP	49	0	5
TAP	49	96	4
TAP	49	96	5
TAP	49	192	4
TAP	49	192	5
STR	50	0	3
SI_	50	0	3	96	288	0
STR	50	0	4
SI_	50	0	4	96	288	7
HLD	52	0	0	192
HLD	53	0	7	192
TAP	54	0	0
TAP	54	192	0
STR	55	0	7
SI_	55	0	7	96	288	4
BRK	57	0	0
BRK	57	192	0
TAP	59	0	0
TAP	59	192	1
TAP	61	0	0
TAP	61	96	7
TAP	61	192	0
TAP	61	288	7
TAP	63	0	0
TAP	63	0	7
TAP	63	96	0
TAP	63	96	7
TAP	63	192	1
TAP	63	192	6
TAP	64	0	0
TAP	64	192	1
TAP	65	0	2
TAP	65	192	3
TAP	66	0	4
TAP	66	192	5
TAP	67	0	6
TAP	67	192	0
TAP	67	192	7
BRK	68	0	1
BRK	68	0	6
TAP	70	0	7
TAP	70	96	7
TAP	70	192	7
TAP	71	0	6
TAP	71	96	6
TAP	71	192	6
TAP	72	0	5
TAP	72	96	5
TAP	72	192	5
TAP	73	0	4
TAP	73	96	3
TAP	73	192	4
HLD	74	0	3	192
HLD	75	0	2	192
TAP	76	0	0
TAP	76	0	1
TAP	76	96	0
TAP	76	96	1
TAP	76	192	0
TAP	76	192	1
TAP	77	0	6
TAP	77	0	7
TAP	77	96	6
TAP	77	96	7
TAP	77	192	6
TAP	77	192	7
TAP	78	0	0
TAP	78	96	0
TAP	78	192	0
TAP	79	0	1
TAP	79	96	1
TAP	79	192	1
TAP	80	0	2
TAP	80	96	2
TAP	80	192	2
TAP	81	0	3
TAP	81	96	4
TAP	81	192	3
HLD	82	0	4	192
HLD	83	0	5	192
TAP	84	0	6
TAP	84	0	7
TAP	84	192	6
TAP	84	192	7
TAP	85	0	0
TAP	85	0	1
TAP	85	96	0
TAP	85	96	1
TAP	85	192	0
TAP	85	192	1
HLD	86	0	7	384
HLD	88	0	6	384
HLD	90	0	5	384
TAP	92	0	4
TAP	92	192	4
TAP	93	0	3
TAP	93	0	4
TAP	93	96	3
TAP	93	96	4
BRK	93	192	2
BRK	93	192	5

T_REC_TAP	181
T_REC_BRK	11
T_REC_XTP	0
T_REC_HLD	13
T_REC_XHO	0
T_REC_STR	5
T_REC_BST	0
T_REC_XST	0
T_REC_TTP	0
T_REC_THO	0
T_REC_SLD	5
T_REC_ALL	215
T_NUM_TAP	186
T_NUM_BRK	11
T_NUM_HLD	13
T_NUM_SLD	5
T_NUM_ALL	215
T_JUDGE_TAP	197
T_JUDGE_HLD	64
T_JUDGE_SLD	5
T_JUDGE_ALL	266
TTM_EACHPAIRS	50
TTM_SCR_TAP	93000
TTM_SCR_BRK	28600
TTM_SCR_HLD	13000
TTM_SCR_SLD	7500
TTM_SCR_ALL	142100
TTM_SCR_S	136800
TTM_SCR_SS	141000
TTM_RAT_ACV	10078

