VERSION	0.00.00	1.03.00
FES_MODE	0
BPM_DEF	190.000	190.000	190.000	190.000
MET_DEF	4	4
RESOLUTION	384
CLK_DEF	384
COMPATIBLE_CODE	MA2

BPM	0	0	190.000

HLD	2	0	2	384
TAP	2	0	5
TAP	2	96	3
TAP	2	144	3
TAP	2	240	4
TAP	2	288	4
HLD	3	0	5	384
TAP	3	96	4
TAP	3	144	4
TAP	3	240	3
TAP	3	288	3
HLD	4	0	2	384
TAP	4	96	3
TAP	4	144	3
TAP	4	240	4
TAP	4	288	4
HLD	5	0	5	384
TAP	5	96	4
TAP	5	144	4
TAP	5	240	3
TAP	5	288	3
STR	6	0	1
SCR	6	0	1	96	480	7
TAP	6	96	4
HLD	6	144	4	432
STR	8	0	0
SSL	8	0	0	96	192	4
HLD	8	0	1	288
STR	9	0	1
SSR	9	0	1	96	192	5
HLD	9	0	4	288
TAP	10	0	3
HLD	10	0	6	384
TAP	10	96	4
TAP	10	144	4
TAP	10	240	5
TAP	10	288	5
HLD	11	0	3	384
TAP	11	96	5
TAP	11	144	5
TAP	11	240	4
TAP	11	288	4
HLD	12	0	5	384
TAP	12	96	3
TAP	12	144	3
TAP	12	240	4
TAP	12	288	4
HLD	13	0	2	384
TAP	13	96	4
TAP	13	144	4
TAP	13	240	3
TAP	13	288	3
STR	14	0	5
SCR	14	0	5	96	384	2
TAP	14	96	4
TAP	14	144	4
HLD	15	192	3	192
STR	16	0	4
SUL	16	0	4	96	192	3
STR	16	288	0
SI_	16	288	0	96	48	4
HLD	17	0	7	384
BST	18	0	0
SCL	18	0	0	96	48	5
STR	18	96	0
SI_	18	96	0	96	48	4
TAP	18	96	2
TAP	18	192	0
TAP	18	192	4
STR	18	288	7
SCR	18	288	7	96	48	2
TAP	19	0	5
STR	19	0	7
SI_	19	0	7	96	48	3
TAP	19	96	3
TAP	19	96	7
TAP	19	192	2
TAP	19	288	2
TAP	19	288	3
STR	19	336	1
SCR	19	336	1	96	48	4
TAP	19	336	4
TAP	20	48	6
HLD	20	96	6	96
TAP	20	192	7
TAP	20	288	0
STR	20	288	1
SI_	20	288	1	96	48	4
SI_	20	288	1	96	48	5
STR	21	96	6
SI_	21	96	6	96	48	2
SI_	21	96	6	96	48	3
TAP	21	96	7
TAP	21	288	1
TAP	21	288	4
TAP	21	336	1
TAP	21	336	4
STR	22	96	7
SCL	22	96	7	96	48	4
SCR	22	96	7	96	48	2
TAP	22	192	7
STR	22	288	7
SXL	22	288	7	96	192	3
SXR	22	288	7	96	192	3
BRK	23	0	7
TAP	23	288	1
TAP	23	288	5
TAP	23	336	3
TAP	23	336	7
TAP	24	96	1
STR	24	96	6
SI_	24	96	6	96	48	2
STR	24	192	1
SI_	24	192	1	96	48	5
TAP	24	192	6
TAP	24	288	1
TAP	24	288	6
TAP	25	0	1
TAP	25	0	6
TAP	25	96	0
TAP	25	96	7
BRK	25	144	1
BRK	25	144	6
TAP	25	240	5
TAP	25	288	4
TAP	25	336	3
TAP	25	336	6
STR	26	96	1
SI_	26	96	1	96	48	5
TAP	26	96	6
TAP	26	192	1
STR	26	192	7
SI_	26	192	7	96	48	3
STR	26	288	1
SI_	26	288	1	96	48	5
TAP	26	288	7
STR	27	0	0
SI_	27	0	0	96	48	4
TAP	27	0	1
TAP	27	96	0
STR	27	96	1
SCR	27	96	1	96	48	4
TAP	27	192	1
TAP	27	192	5
TAP	27	288	6
TAP	27	288	7
TAP	27	336	0
TAP	27	336	5
TAP	28	96	1
STR	28	96	6
SI_	28	96	6	96	48	2
STR	28	192	0
SI_	28	192	0	96	48	4
TAP	28	192	6
TAP	28	288	0
STR	28	288	6
SI_	28	288	6	96	48	2
TAP	29	0	6
STR	29	0	7
SI_	29	0	7	96	48	3
STR	29	96	6
SCL	29	96	6	96	48	3
TAP	29	96	7
TAP	29	192	2
TAP	29	192	6
TAP	29	288	0
TAP	29	288	1
BRK	29	336	2
BRK	29	336	7
STR	30	96	0
SCL	30	96	0	96	48	5
SCR	30	96	0	96	48	3
TAP	30	192	0
STR	30	288	0
SXL	30	288	0	96	192	4
SXR	30	288	0	96	192	4
BRK	31	0	0
TAP	31	288	2
TAP	31	288	5
STR	32	0	7
SI_	32	0	7	96	48	3
STR	32	96	7
SCL	32	96	7	96	48	4
SCR	32	96	7	96	48	2
STR	32	192	7
SF_	32	192	7	96	48	3
TAP	32	288	7
BRK	33	0	0
BRK	33	0	6
TAP	33	288	1
STR	33	288	6
SCL	33	288	6	96	96	1
TAP	34	0	0
TAP	34	144	0
TAP	34	144	7
TAP	34	240	2
TAP	34	288	1
TAP	34	288	4
STR	35	0	6
SI_	35	0	6	96	48	2
TAP	35	48	6
STR	35	96	1
SCL	35	96	1	96	96	3
TAP	35	192	3
TAP	35	288	7
TAP	35	336	0
TAP	36	0	1
TAP	36	0	3
TAP	36	96	7
STR	36	144	4
SI_	36	144	4	96	48	0
TAP	36	144	6
HLD	36	240	7	96
TAP	36	336	0
STR	37	0	1
SI_	37	0	1	96	48	5
STR	37	96	6
SCR	37	96	6	96	96	4
TAP	37	192	4
TAP	37	288	0
TAP	38	0	1
TAP	38	0	6
TAP	38	96	3
STR	38	144	4
SCL	38	144	4	96	48	1
TAP	38	144	5
TAP	38	240	7
STR	38	288	7
SI_	38	288	7	96	48	3
STR	39	0	0
SCL	39	0	0	96	96	4
STR	39	96	4
SCL	39	96	4	96	96	0
TAP	39	192	0
TAP	39	288	7
TAP	40	0	6
STR	40	0	7
SCR	40	0	7	96	48	2
TAP	40	96	5
STR	40	144	4
SI_	40	144	4	96	48	0
TAP	40	240	1
TAP	40	336	1
TAP	41	0	7
TAP	41	48	0
TAP	41	48	7
TAP	41	96	2
TAP	41	96	5
TAP	41	192	3
TAP	41	192	4
STR	41	288	1
SCR	41	288	1	96	96	6
TAP	41	288	6
TAP	42	0	0
TAP	42	144	0
TAP	42	144	7
TAP	42	240	5
TAP	42	288	3
TAP	42	288	6
STR	43	0	2
SI_	43	0	2	96	48	6
TAP	43	48	2
STR	43	96	5
SCL	43	96	5	96	96	7
TAP	43	192	7
TAP	43	288	3
TAP	43	336	4
TAP	44	0	5
TAP	44	0	7
TAP	44	96	3
STR	44	144	0
SI_	44	144	0	96	48	4
TAP	44	144	2
HLD	44	240	3	96
TAP	44	336	4
STR	45	0	5
SI_	45	0	5	96	48	1
STR	45	96	2
SCR	45	96	2	96	96	0
TAP	45	192	0
TAP	45	288	4
TAP	46	0	2
TAP	46	0	5
TAP	46	96	0
TAP	46	144	6
STR	46	144	7
SCR	46	144	7	96	48	2
TAP	46	240	4
STR	46	288	4
SI_	46	288	4	96	48	0
STR	47	0	3
SCR	47	0	3	96	96	7
STR	47	96	7
SCR	47	96	7	96	96	3
TAP	47	192	3
TAP	47	288	4
STR	48	0	6
SI_	48	0	6	96	48	2
STR	48	96	4
SI_	48	96	4	96	48	0
TAP	48	192	7
TAP	48	240	7
TAP	48	288	0
TAP	48	336	2
TAP	48	336	5
BRK	49	48	0
BRK	49	48	7
BRK	49	96	0
BRK	49	96	7
TAP	49	192	0
TAP	49	216	4
TAP	49	240	1
TAP	49	264	5
TAP	49	288	2
TAP	49	312	6
TAP	49	336	3
TAP	49	360	7
STR	50	0	4
SCL	50	0	4	96	48	1
TAP	50	96	7
STR	50	144	7
SI_	50	144	7	96	48	4
STR	50	240	2
SI_	50	240	2	96	48	7
TAP	50	240	7
TAP	50	336	2
TAP	50	336	3
TAP	51	48	0
TAP	51	48	6
TAP	51	96	1
TAP	51	96	5
TAP	51	144	2
TAP	51	144	4
TAP	51	240	1
TAP	51	240	7
TAP	51	288	2
TAP	51	288	6
TAP	51	336	3
STR	52	0	4
SCR	52	0	4	96	48	7
TAP	52	96	1
STR	52	144	1
SI_	52	144	1	96	48	5
TAP	52	240	1
STR	52	240	7
SI_	52	240	7	96	48	3
HLD	52	336	0	96
TAP	52	336	7
TAP	53	48	4
STR	53	96	4
SI_	53	96	4	96	48	1
SI_	53	96	4	96	48	7
BRK	53	288	2
BRK	53	288	6
STR	54	0	1
SCR	54	0	1	96	48	4
TAP	54	48	6
TAP	54	96	1
TAP	54	144	6
STR	54	192	2
SCR	54	192	2	96	48	5
TAP	54	240	7
TAP	54	288	2
TAP	54	336	7
STR	55	0	3
SI_	55	0	3	96	48	7
STR	55	96	3
SCR	55	96	3	96	48	6
STR	55	192	3
SCL	55	192	3	96	48	0
TAP	55	288	3
BRK	56	0	0
BRK	56	0	5
TAP	56	96	4
TAP	56	96	5
BRK	56	144	2
BRK	56	144	7
TAP	56	240	2
TAP	56	240	3
BST	56	288	0
SF_	56	288	0	96	48	4
BRK	56	288	5
BRK	57	96	2
BRK	57	96	6
TAP	57	192	7
TAP	57	216	3
TAP	57	240	6
TAP	57	264	2
TAP	57	288	5
TAP	57	312	1
TAP	57	336	4
TAP	57	360	0
STR	58	0	3
SCR	58	0	3	96	48	6
TAP	58	96	0
STR	58	144	0
SI_	58	144	0	96	48	3
TAP	58	240	0
STR	58	240	5
SI_	58	240	5	96	48	0
TAP	58	336	4
TAP	58	336	5
TAP	59	48	1
TAP	59	48	7
TAP	59	96	2
TAP	59	96	6
TAP	59	144	3
TAP	59	144	5
TAP	59	240	0
TAP	59	240	6
TAP	59	288	1
TAP	59	288	5
TAP	59	336	4
STR	60	0	3
SCL	60	0	3	96	48	0
TAP	60	96	6
STR	60	144	6
SI_	60	144	6	96	48	2
STR	60	240	0
SI_	60	240	0	96	48	4
TAP	60	240	6
TAP	60	336	0
HLD	60	336	7	96
TAP	61	48	3
STR	61	96	3
SF_	61	96	3	96	48	7
BRK	61	288	1
BRK	61	288	5
STR	62	0	6
SI_	62	0	6	96	48	2
TAP	62	48	0
TAP	62	96	6
TAP	62	144	0
STR	62	192	1
SI_	62	192	1	96	48	5
TAP	62	240	7
TAP	62	288	1
TAP	62	336	7
STR	63	0	6
SCL	63	0	6	96	96	3
STR	63	96	3
SI_	63	96	3	96	96	7
STR	63	192	7
SCR	63	192	7	96	96	2
TAP	63	288	3
STR	64	0	4
SCL	64	0	4	96	96	0
TAP	64	96	6
STR	64	192	3
SCR	64	192	3	96	96	7
TAP	64	288	1
TAP	65	0	0
TAP	65	48	0
TAP	65	64	1
TAP	65	80	2
TAP	65	96	3
TAP	65	96	5
BRK	65	144	1
BRK	65	144	6
TAP	65	240	0
TAP	65	240	7
TAP	65	288	2
TAP	65	288	5
TAP	66	0	1
TAP	66	0	6
STR	66	96	2
SCL	66	96	2	96	96	7
TAP	66	192	6
STR	66	288	5
SCL	66	288	5	96	96	2
TAP	67	0	7
STR	67	96	0
SCL	67	96	0	96	96	5
TAP	67	192	4
STR	67	288	3
SUR	67	288	3	96	96	7
TAP	68	0	2
STR	68	96	3
SUL	68	96	3	96	96	7
TAP	68	192	4
STR	68	288	3
SCR	68	288	3	96	96	7
TAP	69	0	2
TAP	69	96	3
TAP	69	192	1
TAP	69	192	5
STR	69	288	0
SCR	69	288	0	96	96	3
TAP	69	288	7
TAP	70	0	6
STR	70	96	5
SCR	70	96	5	96	96	0
TAP	70	192	1
STR	70	288	2
SCR	70	288	2	96	96	5
TAP	71	0	0
STR	71	96	7
SCR	71	96	7	96	96	2
TAP	71	192	3
STR	71	288	4
SUL	71	288	4	96	96	0
TAP	72	0	5
STR	72	96	4
SUR	72	96	4	96	96	0
TAP	72	192	3
STR	72	288	4
SCL	72	288	4	96	96	0
TAP	73	0	5
TAP	73	96	4
TAP	73	192	2
TAP	73	192	6
STR	73	288	0
SI_	73	288	0	96	48	3
SI_	73	288	0	96	48	5
TAP	73	288	7
BRK	74	0	0
TAP	74	96	0
STR	74	96	7
SI_	74	96	7	96	48	2
SI_	74	96	7	96	48	4
BRK	74	192	7
STR	74	288	3
SF_	74	288	3	96	48	7
TAP	74	288	4
BRK	75	0	3
TAP	75	96	3
STR	75	96	4
SF_	75	96	4	96	48	0
BRK	75	192	4
STR	75	288	3
SUL	75	288	3	96	288	4
STR	75	288	4
SCR	75	288	4	96	288	3
BRK	76	0	3
BRK	76	0	4
TAP	77	0	0
STR	77	0	4
SCR	77	0	4	96	48	7
BST	77	96	4
SCL	77	96	4	96	48	1
BST	77	192	4
SI_	77	192	4	96	48	0
BST	77	288	4
SXL	77	288	4	96	288	0
SXR	77	288	4	96	288	0
TAP	79	0	0
STR	79	0	5
SUL	79	0	5	96	96	7
TAP	79	96	2
STR	79	192	1
SUL	79	192	1	96	96	3
TAP	79	288	7
TAP	80	0	6
TAP	80	48	0
HLD	80	48	4	96
TAP	80	144	1
TAP	80	192	0
TAP	80	192	2
HLD	80	240	3	96
TAP	80	240	7
TAP	80	336	4
STR	81	0	4
SCR	81	0	4	96	48	7
STR	81	96	4
SCL	81	96	4	96	48	1
STR	81	192	4
SI_	81	192	4	96	48	0
STR	81	288	4
SCR	81	288	4	96	528	3
STR	83	252	3
SCL	83	252	3	96	552	4
HLD	83	348	7	552
HLD	85	240	1	408
HLD	85	240	6	816

T_REC_TAP	283
T_REC_BRK	31
T_REC_XTP	0
T_REC_HLD	23
T_REC_XHO	0
T_REC_STR	108
T_REC_BST	5
T_REC_XST	0
T_REC_TTP	0
T_REC_THO	0
T_REC_SLD	124
T_REC_ALL	574
T_NUM_TAP	391
T_NUM_BRK	36
T_NUM_HLD	23
T_NUM_SLD	124
T_NUM_ALL	574
T_JUDGE_TAP	427
T_JUDGE_HLD	149
T_JUDGE_SLD	124
T_JUDGE_ALL	700
TTM_EACHPAIRS	108
TTM_SCR_TAP	195500
TTM_SCR_BRK	93600
TTM_SCR_HLD	23000
TTM_SCR_SLD	186000
TTM_SCR_ALL	498100
TTM_SCR_S	479700
TTM_SCR_SS	494500
TTM_RAT_ACV	10072

