VERSION	0.00.00	1.03.00
FES_MODE	0
BPM_DEF	190.000	190.000	190.000	190.000
MET_DEF	4	4
RESOLUTION	384
CLK_DEF	384
COMPATIBLE_CODE	MA2

BPM	0	0	190.000

HLD	2	0	5	288
TAP	2	96	4
TAP	2	192	4
TAP	2	288	4
HLD	3	0	2	288
TAP	3	96	3
TAP	3	192	3
TAP	3	288	3
HLD	4	0	4	288
TAP	4	96	3
TAP	4	192	3
TAP	4	288	3
HLD	5	0	1	288
TAP	5	96	2
TAP	5	192	2
TAP	5	288	3
TAP	6	0	3
TAP	6	96	2
TAP	6	96	3
STR	6	144	2
SCR	6	144	2	96	432	1
TAP	6	144	3
TAP	8	0	2
TAP	8	96	3
TAP	8	192	5
TAP	8	288	3
TAP	8	288	4
TAP	9	0	2
TAP	9	0	5
TAP	9	96	4
TAP	9	192	3
TAP	9	288	2
HLD	10	0	2	288
TAP	10	96	3
TAP	10	192	3
TAP	10	288	3
HLD	11	0	5	288
TAP	11	96	4
TAP	11	192	4
TAP	11	288	4
HLD	12	0	3	288
TAP	12	96	4
TAP	12	192	4
TAP	12	288	4
HLD	13	0	6	288
TAP	13	96	5
TAP	13	192	5
TAP	13	288	4
TAP	14	0	4
TAP	14	96	4
TAP	14	96	5
TAP	14	144	4
STR	14	144	5
SUR	14	144	5	96	240	2
HLD	15	192	3	576
HLD	16	0	4	384
TAP	17	192	6
TAP	17	192	7
TAP	18	0	0
STR	18	0	1
SI_	18	0	1	96	48	4
STR	18	192	6
SI_	18	192	6	96	48	3
TAP	18	192	7
TAP	19	0	0
STR	19	0	1
SI_	19	0	1	96	48	4
STR	19	192	6
SI_	19	192	6	96	48	3
TAP	19	192	7
TAP	20	0	0
TAP	20	0	1
STR	20	96	6
SI_	20	96	6	96	72	4
STR	20	96	7
SI_	20	96	7	96	72	3
STR	21	0	1
SI_	21	0	1	96	48	4
STR	21	96	6
SI_	21	96	6	96	48	3
STR	21	192	0
SI_	21	192	0	96	48	4
TAP	21	288	7
TAP	21	336	7
STR	22	96	6
SI_	22	96	6	96	48	2
STR	22	192	1
SI_	22	192	1	96	48	5
STR	22	288	4
SCR	22	288	4	96	288	2
SUR	22	288	4	96	288	3
STR	24	0	1
SI_	24	0	1	96	48	4
STR	24	96	7
SI_	24	96	7	96	48	2
STR	24	192	0
SI_	24	192	0	96	48	5
TAP	24	288	6
TAP	25	0	3
TAP	25	96	3
TAP	25	96	4
HLD	25	144	3	144
HLD	25	144	4	144
TAP	26	0	6
TAP	26	0	7
TAP	26	96	0
STR	26	96	1
SI_	26	96	1	96	48	4
STR	26	288	6
SI_	26	288	6	96	48	3
TAP	26	288	7
STR	27	96	0
SI_	27	96	0	96	72	4
STR	27	96	1
SI_	27	96	1	96	72	3
STR	28	0	6
SI_	28	0	6	96	48	3
TAP	28	0	7
TAP	28	192	0
STR	28	192	1
SI_	28	192	1	96	48	4
STR	29	0	6
SI_	29	0	6	96	48	3
STR	29	96	1
SI_	29	96	1	96	48	4
STR	29	192	7
SI_	29	192	7	96	48	3
TAP	29	288	0
TAP	29	336	0
STR	30	96	1
SI_	30	96	1	96	48	5
STR	30	192	6
SI_	30	192	6	96	48	2
STR	30	288	3
SCL	30	288	3	96	288	5
SUL	30	288	3	96	288	4
STR	32	0	6
SI_	32	0	6	96	48	3
STR	32	96	0
SI_	32	96	0	96	48	4
STR	32	192	7
SI_	32	192	7	96	48	3
TAP	32	288	1
BRK	33	0	2
BRK	33	0	5
TAP	33	192	0
STR	33	288	0
SCR	33	288	0	96	384	7
BRK	34	0	7
TAP	35	96	5
TAP	35	144	5
TAP	35	192	4
TAP	35	288	2
TAP	35	288	7
TAP	36	0	0
HLD	36	0	6	96
TAP	36	96	4
TAP	36	144	4
TAP	36	240	3
TAP	36	240	4
TAP	36	336	1
TAP	36	336	3
TAP	37	48	0
TAP	37	96	0
TAP	37	192	1
TAP	37	192	3
TAP	37	288	2
TAP	37	288	4
TAP	38	0	3
HLD	38	0	5	96
TAP	38	96	2
TAP	38	144	2
TAP	38	144	3
TAP	38	240	5
TAP	38	288	4
TAP	38	288	5
STR	39	0	7
SI_	39	0	7	96	48	3
STR	39	96	1
SI_	39	96	1	96	48	4
STR	39	192	6
SI_	39	192	6	96	48	3
TAP	39	288	2
TAP	40	0	0
TAP	40	0	1
TAP	40	96	0
TAP	40	144	1
TAP	40	144	7
STR	40	240	2
SCL	40	240	2	96	96	7
TAP	40	240	6
TAP	41	192	7
STR	41	288	7
SCL	41	288	7	96	384	0
BRK	42	0	0
TAP	43	96	2
TAP	43	144	2
TAP	43	192	3
TAP	43	288	0
TAP	43	288	5
HLD	44	0	1	96
TAP	44	0	7
TAP	44	96	3
TAP	44	144	3
TAP	44	240	3
TAP	44	240	4
TAP	44	336	4
TAP	44	336	6
TAP	45	48	7
TAP	45	96	7
TAP	45	192	4
TAP	45	192	6
TAP	45	288	3
TAP	45	288	5
HLD	46	0	2	96
TAP	46	0	4
TAP	46	96	5
TAP	46	144	4
TAP	46	144	5
TAP	46	240	2
TAP	46	288	2
TAP	46	288	3
STR	47	0	0
SI_	47	0	0	96	48	4
STR	47	96	6
SI_	47	96	6	96	48	3
STR	47	192	1
SI_	47	192	1	96	48	4
STR	47	288	5
SCL	47	288	5	96	144	1
STR	48	240	0
SF_	48	240	0	96	192	4
TAP	49	288	2
TAP	49	288	6
BRK	50	0	0
BRK	50	0	5
TAP	50	96	6
TAP	50	96	7
TAP	50	144	0
TAP	50	144	5
TAP	50	240	2
TAP	50	240	7
TAP	50	336	4
TAP	50	336	5
STR	51	48	2
SI_	51	48	2	96	96	6
STR	51	48	7
SI_	51	48	7	96	96	4
TAP	51	336	0
TAP	51	336	5
TAP	52	0	0
TAP	52	0	5
TAP	52	96	0
TAP	52	96	1
TAP	52	144	2
TAP	52	144	7
TAP	52	240	3
TAP	52	240	4
HLD	52	336	6	144
HLD	53	96	5	96
HLD	53	192	4	96
TAP	53	288	3
TAP	54	0	2
TAP	54	0	3
TAP	54	96	1
TAP	54	192	0
TAP	54	192	1
TAP	54	288	2
TAP	54	288	7
TAP	54	336	2
TAP	54	336	7
TAP	55	48	0
TAP	55	48	6
TAP	55	96	0
TAP	55	96	6
HLD	55	192	5	96
TAP	55	288	4
BRK	56	0	3
BRK	56	0	6
TAP	56	96	1
BRK	56	144	1
BRK	56	144	4
TAP	56	240	7
BRK	56	288	3
BRK	56	288	7
TAP	57	0	2
TAP	57	48	3
TAP	57	96	1
TAP	57	96	4
TAP	57	192	5
TAP	57	240	4
TAP	57	288	3
TAP	57	288	6
BRK	58	0	2
BRK	58	0	7
TAP	58	96	0
TAP	58	96	1
TAP	58	144	2
TAP	58	144	7
TAP	58	240	0
TAP	58	240	5
TAP	58	336	2
TAP	58	336	3
STR	59	48	0
SI_	59	48	0	96	96	3
STR	59	48	5
SI_	59	48	5	96	96	1
TAP	59	336	2
TAP	59	336	7
TAP	60	0	2
TAP	60	0	7
TAP	60	96	6
TAP	60	96	7
TAP	60	144	0
TAP	60	144	5
TAP	60	240	3
TAP	60	240	4
HLD	60	336	1	144
HLD	61	96	2	96
HLD	61	192	3	96
TAP	61	288	4
TAP	62	0	4
TAP	62	0	5
TAP	62	96	6
TAP	62	192	6
TAP	62	192	7
TAP	62	288	0
TAP	62	288	5
TAP	62	336	0
TAP	62	336	5
TAP	63	48	1
TAP	63	48	7
TAP	63	96	1
TAP	63	96	7
HLD	63	192	2	96
TAP	63	288	3
HLD	64	0	5	96
TAP	64	0	7
TAP	64	96	3
TAP	64	192	0
HLD	64	192	2	96
TAP	64	288	4
BRK	65	0	1
BRK	65	0	6
TAP	65	96	5
BRK	65	144	4
BRK	65	144	6
TAP	65	240	2
BRK	65	288	1
BRK	65	288	3
BST	66	0	0
SCR	66	0	0	96	576	6
BRK	66	0	4
HLD	68	0	7	144
HLD	68	144	6	144
HLD	68	288	5	144
HLD	69	48	4	144
TAP	69	192	3
TAP	69	288	2
TAP	69	288	5
TAP	70	0	1
HLD	70	0	6	144
HLD	70	144	5	144
HLD	70	288	4	144
HLD	71	48	3	144
TAP	71	192	2
TAP	71	288	1
HLD	72	0	0	144
HLD	72	144	1	144
HLD	72	288	2	144
HLD	73	48	3	144
TAP	73	192	4
TAP	73	288	2
TAP	73	288	5
STR	74	0	6
SI_	74	0	6	96	48	4
STR	74	0	7
SI_	74	0	7	96	48	3
STR	74	192	0
SI_	74	192	0	96	48	4
STR	74	192	1
SI_	74	192	1	96	48	3
STR	75	0	6
SI_	75	0	6	96	48	4
STR	75	0	7
SI_	75	0	7	96	48	3
TAP	75	192	0
TAP	75	192	1
STR	75	288	4
SUR	75	288	4	96	288	3
STR	75	288	5
SCR	75	288	5	96	288	2
STR	77	0	0
SI_	77	0	0	96	48	4
STR	77	0	1
SI_	77	0	1	96	48	3
TAP	77	192	6
TAP	77	192	7
STR	77	288	2
SCL	77	288	2	96	384	5
STR	77	288	3
SUR	77	288	3	96	384	4
TAP	79	192	6
TAP	79	192	7
TAP	79	288	2
TAP	80	0	0
TAP	80	0	1
TAP	80	96	5
TAP	80	192	6
TAP	80	192	7
TAP	80	288	3
TAP	81	0	0
TAP	81	0	1
TAP	81	96	2
TAP	81	96	3
TAP	81	192	4
TAP	81	192	5
TAP	81	288	6
STR	81	288	7
SCL	81	288	7	96	2112	0

T_REC_TAP	237
T_REC_BRK	21
T_REC_XTP	0
T_REC_HLD	38
T_REC_XHO	0
T_REC_STR	60
T_REC_BST	1
T_REC_XST	0
T_REC_TTP	0
T_REC_THO	0
T_REC_SLD	63
T_REC_ALL	420
T_NUM_TAP	297
T_NUM_BRK	22
T_NUM_HLD	38
T_NUM_SLD	63
T_NUM_ALL	420
T_JUDGE_TAP	319
T_JUDGE_HLD	140
T_JUDGE_SLD	63
T_JUDGE_ALL	522
TTM_EACHPAIRS	107
TTM_SCR_TAP	148500
TTM_SCR_BRK	57200
TTM_SCR_HLD	38000
TTM_SCR_SLD	94500
TTM_SCR_ALL	338200
TTM_SCR_S	325950
TTM_SCR_SS	336000
TTM_RAT_ACV	10065

