VERSION	0.00.00	1.03.00
FES_MODE	0
BPM_DEF	190.000	190.000	190.000	190.000
MET_DEF	4	4
RESOLUTION	384
CLK_DEF	384
COMPATIBLE_CODE	MA2

BPM	0	0	190.000

HLD	2	0	2	384
HLD	3	0	3	384
HLD	4	0	4	384
TAP	5	0	5
TAP	5	192	4
TAP	5	192	5
STR	6	0	5
SCR	6	0	5	96	480	2
HLD	8	0	3	384
TAP	9	0	4
TAP	9	192	2
TAP	9	192	5
HLD	10	0	5	384
HLD	11	0	4	384
HLD	12	0	3	384
TAP	13	0	2
TAP	13	192	1
TAP	13	192	4
STR	14	0	0
SCR	14	0	0	96	480	5
STR	16	0	7
SSR	16	0	7	96	336	3
TAP	17	192	2
TAP	17	192	5
BRK	18	0	1
TAP	18	96	1
TAP	18	192	2
TAP	18	288	2
TAP	19	0	3
TAP	19	96	3
TAP	19	192	3
TAP	19	192	4
TAP	20	0	6
TAP	20	96	6
TAP	20	192	5
TAP	20	288	5
TAP	21	0	4
TAP	21	96	4
TAP	21	192	3
TAP	21	192	4
TAP	22	0	2
TAP	22	96	2
TAP	22	192	3
STR	22	288	3
SCL	22	288	3	96	192	7
TAP	24	0	5
TAP	24	96	5
TAP	24	192	4
STR	24	288	4
SCR	24	288	4	96	192	0
TAP	26	0	2
TAP	26	96	2
TAP	26	192	3
TAP	26	288	3
TAP	27	0	4
TAP	27	96	5
TAP	27	192	3
TAP	27	192	6
TAP	28	0	5
TAP	28	96	5
TAP	28	192	4
TAP	28	288	4
TAP	29	0	3
TAP	29	96	2
TAP	29	192	1
TAP	29	192	4
TAP	30	0	6
TAP	30	96	6
TAP	30	192	7
STR	30	288	7
SCL	30	288	7	96	192	3
TAP	32	0	1
TAP	32	96	1
TAP	32	192	0
TAP	32	288	0
TAP	33	0	0
TAP	33	0	7
TAP	33	96	0
TAP	33	96	7
BRK	33	192	1
BRK	33	192	6
TAP	34	0	0
TAP	34	0	7
TAP	34	96	1
TAP	34	192	2
TAP	34	288	3
TAP	35	0	4
TAP	35	96	5
TAP	35	192	6
TAP	35	192	7
TAP	36	0	0
TAP	36	0	7
TAP	36	96	6
TAP	36	192	5
TAP	36	288	4
TAP	37	0	3
TAP	37	96	2
TAP	37	192	0
TAP	37	192	1
TAP	38	0	5
TAP	38	96	4
TAP	38	192	3
TAP	38	192	6
TAP	39	0	2
TAP	39	96	3
TAP	39	192	1
TAP	39	192	4
TAP	40	0	0
TAP	40	0	6
TAP	40	96	0
TAP	40	96	6
TAP	40	192	1
TAP	40	192	5
TAP	41	0	2
TAP	41	0	4
TAP	41	96	2
TAP	41	96	4
TAP	41	192	3
STR	41	288	3
SCL	41	288	3	96	384	6
TAP	43	192	4
TAP	43	192	5
TAP	44	0	2
TAP	44	96	2
TAP	44	192	1
TAP	44	192	3
TAP	45	0	5
TAP	45	96	5
TAP	45	192	4
TAP	45	192	6
TAP	46	0	3
TAP	46	0	4
TAP	46	96	3
TAP	46	96	4
TAP	46	192	2
TAP	46	192	5
TAP	47	0	1
TAP	47	96	1
TAP	47	192	0
STR	47	288	0
SI_	47	288	0	96	384	3
SI_	47	288	0	96	384	5
BRK	49	192	2
BRK	49	192	6
TAP	50	0	7
TAP	50	96	6
TAP	50	192	4
TAP	50	192	5
TAP	50	288	4
TAP	50	288	5
TAP	51	0	2
TAP	51	0	3
TAP	51	96	2
TAP	51	96	3
TAP	51	192	1
TAP	51	192	4
TAP	52	0	0
TAP	52	96	1
TAP	52	192	2
TAP	52	192	3
TAP	52	288	2
TAP	52	288	3
TAP	53	0	4
TAP	53	0	5
TAP	53	96	4
TAP	53	96	5
TAP	53	192	6
STR	53	288	7
SCL	53	288	7	96	384	2
TAP	55	192	0
TAP	55	192	7
TAP	55	288	0
TAP	55	288	7
TAP	56	0	6
TAP	56	96	5
STR	56	192	4
SCR	56	192	4	96	336	1
TAP	58	0	2
TAP	58	96	3
TAP	58	192	4
TAP	58	288	5
TAP	59	0	6
TAP	59	0	7
TAP	59	96	6
TAP	59	96	7
TAP	59	192	0
TAP	59	192	5
TAP	60	0	5
TAP	60	96	4
TAP	60	192	3
TAP	60	288	2
TAP	61	0	0
TAP	61	0	1
TAP	61	96	0
TAP	61	96	1
TAP	61	192	2
STR	61	288	3
SCL	61	288	3	96	384	6
TAP	63	192	4
TAP	63	192	5
HLD	64	0	1	96
HLD	64	0	3	96
HLD	64	192	4	96
HLD	64	192	6	96
HLD	65	0	3	96
HLD	65	0	4	96
TAP	65	192	2
TAP	65	192	5
BST	65	288	2
SLL	65	288	2	96	576	3
BST	65	288	5
SLR	65	288	5	96	576	4
HLD	68	0	1	192
TAP	68	192	0
TAP	69	0	7
TAP	69	96	6
TAP	69	192	0
TAP	69	192	5
HLD	70	0	6	192
TAP	70	192	7
TAP	71	0	0
TAP	71	96	1
TAP	71	192	2
TAP	71	192	7
HLD	72	0	4	192
HLD	72	0	5	192
TAP	73	0	2
TAP	73	0	3
TAP	73	96	1
TAP	73	96	4
TAP	73	192	0
TAP	73	192	5
HLD	74	0	1	96
HLD	74	0	3	96
TAP	74	192	1
TAP	74	192	3
TAP	74	288	0
HLD	75	0	0	96
HLD	75	0	7	96
TAP	75	192	0
TAP	75	192	7
STR	75	288	6
SLL	75	288	6	96	384	0
TAP	77	96	1
TAP	77	192	1
STR	77	288	1
SLR	77	288	1	96	432	7
HLD	80	0	6	96
HLD	80	0	7	96
HLD	80	192	0	96
HLD	80	192	1	96
TAP	81	0	0
TAP	81	0	7
TAP	81	96	1
TAP	81	96	6
TAP	81	192	2
TAP	81	192	5
STR	81	288	4
SXL	81	288	4	96	576	7
STR	83	336	0
SXL	83	336	0	96	576	3

T_REC_TAP	196
T_REC_BRK	5
T_REC_XTP	0
T_REC_HLD	25
T_REC_XHO	0
T_REC_STR	15
T_REC_BST	2
T_REC_XST	0
T_REC_TTP	0
T_REC_THO	0
T_REC_SLD	18
T_REC_ALL	261
T_NUM_TAP	211
T_NUM_BRK	7
T_NUM_HLD	25
T_NUM_SLD	18
T_NUM_ALL	261
T_JUDGE_TAP	218
T_JUDGE_HLD	100
T_JUDGE_SLD	18
T_JUDGE_ALL	336
TTM_EACHPAIRS	66
TTM_SCR_TAP	105500
TTM_SCR_BRK	18200
TTM_SCR_HLD	25000
TTM_SCR_SLD	27000
TTM_SCR_ALL	175700
TTM_SCR_S	169750
TTM_SCR_SS	175000
TTM_RAT_ACV	10040

