VERSION	0.00.00	1.03.00
FES_MODE	0
BPM_DEF	190.000	190.000	190.000	190.000
MET_DEF	4	4
RESOLUTION	384
CLK_DEF	384
COMPATIBLE_CODE	MA2

BPM	0	0	190.000
MET	0	0	4	4

HLD	2	0	5	384
HLD	4	0	4	384
HLD	6	0	3	384
HLD	8	0	2	384
TAP	10	0	2
TAP	11	0	2
TAP	12	0	3
TAP	13	0	3
TAP	14	0	4
TAP	15	0	4
TAP	16	0	5
TAP	17	0	4
TAP	17	0	5
TAP	18	0	3
TAP	18	192	3
TAP	19	0	3
TAP	19	96	3
TAP	19	192	3
TAP	20	0	2
TAP	20	192	2
TAP	21	0	2
TAP	21	96	2
TAP	21	192	2
TAP	22	0	1
TAP	22	192	1
TAP	23	0	1
TAP	23	96	1
TAP	23	192	1
TAP	24	0	0
TAP	24	192	0
TAP	25	0	0
TAP	25	96	0
TAP	25	192	0
TAP	25	192	7
TAP	26	0	7
TAP	26	192	7
TAP	27	0	7
TAP	27	96	7
TAP	27	192	7
TAP	28	0	6
TAP	28	192	6
TAP	29	0	6
TAP	29	96	6
TAP	29	192	6
TAP	30	0	5
TAP	30	192	5
TAP	31	0	5
TAP	31	96	5
TAP	31	192	5
TAP	32	0	4
TAP	32	192	4
TAP	33	0	4
TAP	33	96	4
TAP	33	192	3
TAP	33	192	4
STR	34	0	4
SI_	34	0	4	96	288	7
STR	36	0	0
SI_	36	0	0	96	288	3
HLD	38	0	2	192
TAP	39	0	3
TAP	39	192	3
TAP	39	192	4
HLD	40	0	5	192
TAP	41	0	4
TAP	41	192	3
TAP	41	192	4
STR	42	0	3
SI_	42	0	3	96	288	0
STR	44	0	7
SI_	44	0	7	96	288	4
TAP	46	0	5
TAP	46	192	5
TAP	47	0	4
TAP	47	192	3
TAP	47	192	4
TAP	48	0	2
TAP	48	192	2
TAP	49	0	3
TAP	49	192	3
TAP	49	192	4
TAP	50	0	4
TAP	50	96	4
TAP	50	192	4
TAP	51	0	5
TAP	51	96	5
TAP	51	192	5
TAP	52	0	6
TAP	52	96	6
TAP	52	192	6
TAP	53	0	7
TAP	53	96	7
TAP	53	192	0
TAP	53	192	7
HLD	54	0	0	192
HLD	54	0	7	192
TAP	55	0	7
TAP	55	192	6
TAP	55	192	7
TAP	56	0	0
TAP	56	192	0
TAP	56	192	1
BRK	57	0	0
BRK	57	0	7
TAP	58	0	0
TAP	58	96	0
TAP	58	192	0
TAP	59	0	1
TAP	59	96	1
TAP	59	192	1
TAP	60	0	2
TAP	60	96	2
TAP	60	192	2
TAP	61	0	3
TAP	61	96	3
TAP	61	192	3
TAP	61	192	4
HLD	62	0	3	192
HLD	62	0	4	192
TAP	63	0	3
TAP	63	192	2
TAP	63	192	3
TAP	64	0	4
TAP	64	192	4
TAP	64	192	5
BRK	65	0	3
BRK	65	0	4
STR	66	0	3
SI_	66	0	3	96	288	0
STR	68	0	7
SI_	68	0	7	96	288	4
STR	70	0	5
SI_	70	0	5	96	288	2
STR	72	0	1
SI_	72	0	1	96	288	6
HLD	74	0	5	192
TAP	75	0	5
TAP	75	192	4
TAP	75	192	5
HLD	76	0	4	192
TAP	77	0	4
TAP	77	192	3
TAP	77	192	4
HLD	78	0	3	192
TAP	79	0	3
TAP	79	192	2
TAP	79	192	3
HLD	80	0	3	192
TAP	81	0	3
TAP	81	192	3
TAP	81	192	4
HLD	82	0	3	1536
HLD	82	0	4	1536

T_REC_TAP	117
T_REC_BRK	4
T_REC_XTP	0
T_REC_HLD	16
T_REC_XHO	0
T_REC_STR	8
T_REC_BST	0
T_REC_XST	0
T_REC_TTP	0
T_REC_THO	0
T_REC_SLD	8
T_REC_ALL	153
T_NUM_TAP	125
T_NUM_BRK	4
T_NUM_HLD	16
T_NUM_SLD	8
T_NUM_ALL	153
T_JUDGE_TAP	129
T_JUDGE_HLD	136
T_JUDGE_SLD	8
T_JUDGE_ALL	273
TTM_EACHPAIRS	22
TTM_SCR_TAP	62500
TTM_SCR_BRK	10400
TTM_SCR_HLD	16000
TTM_SCR_SLD	12000
TTM_SCR_ALL	100900
TTM_SCR_S	97500
TTM_SCR_SS	100500
TTM_RAT_ACV	10039

