VERSION	0.00.00	1.03.00
FES_MODE	0
BPM_DEF	162.000	162.000	162.000	162.000
MET_DEF	4	4
RESOLUTION	384
CLK_DEF	384
COMPATIBLE_CODE	MA2

BPM	0	0	162.000
MET	0	0	4	4

HLD	1	192	7	96
TAP	1	240	0
TAP	1	248	1
TAP	1	256	2
TAP	1	264	3
TAP	1	272	4
TAP	1	280	5
BRK	1	288	6
TAP	2	0	6
HLD	2	24	6	48
TAP	2	72	7
TAP	2	120	4
TAP	2	144	3
TAP	2	168	4
TAP	2	192	1
HLD	2	216	1	48
TAP	2	264	0
TAP	2	312	3
TAP	2	336	4
TAP	2	360	3
TAP	3	0	6
HLD	3	24	6	48
TAP	3	72	7
TAP	3	120	4
STR	3	144	3
SI_	3	144	3	96	48	1
TAP	3	168	4
STR	3	192	1
SI_	3	192	1	96	48	5
STR	3	240	5
SI_	3	240	5	96	48	0
TAP	3	288	6
TAP	3	336	7
TAP	4	0	6
HLD	4	24	6	48
TAP	4	72	7
TAP	4	120	4
TAP	4	144	3
TAP	4	168	4
TAP	4	192	1
HLD	4	216	1	48
TAP	4	264	0
TAP	4	312	3
TAP	4	336	4
TAP	4	360	3
HLD	5	0	5	96
BRK	5	96	0
TAP	5	104	1
HLD	5	112	2	80
BRK	5	192	7
TAP	5	200	6
TAP	5	208	5
BRK	5	264	1
TAP	5	272	2
BRK	5	336	5
TAP	5	344	4
TAP	6	0	1
HLD	6	24	1	48
TAP	6	72	0
TAP	6	120	2
TAP	6	144	4
TAP	6	168	2
TAP	6	192	6
HLD	6	216	6	48
TAP	6	264	7
TAP	6	312	5
TAP	6	336	3
TAP	6	360	5
TAP	7	0	1
HLD	7	24	1	48
TAP	7	72	0
TAP	7	120	2
STR	7	144	4
SI_	7	144	4	96	48	6
TAP	7	168	2
STR	7	192	6
SI_	7	192	6	96	48	2
STR	7	240	2
SI_	7	240	2	96	48	7
TAP	7	288	1
TAP	7	336	0
TAP	8	0	1
HLD	8	24	1	48
TAP	8	72	0
TAP	8	120	2
TAP	8	144	4
TAP	8	168	3
TAP	8	192	6
HLD	8	216	6	48
TAP	8	264	7
TAP	8	312	5
TAP	8	336	3
TAP	8	360	4
STR	9	0	2
SUR	9	0	2	96	240	5
STR	9	192	6
SI_	9	192	6	96	48	2
BRK	9	288	6
TAP	10	0	2
TAP	10	24	3
TAP	10	48	2
STR	10	72	3
SI_	10	72	3	96	48	7
TAP	10	120	4
TAP	10	168	5
TAP	10	288	1
TAP	10	312	0
TAP	10	336	1
STR	10	360	0
SI_	10	360	0	96	48	4
TAP	11	24	7
TAP	11	72	6
TAP	11	192	5
TAP	11	216	4
TAP	11	240	6
TAP	11	264	6
TAP	11	288	2
TAP	11	312	3
TAP	11	336	1
TAP	11	360	1
TAP	12	0	5
TAP	12	24	4
TAP	12	48	5
STR	12	72	4
SI_	12	72	4	96	48	0
TAP	12	120	3
TAP	12	168	2
TAP	12	288	6
TAP	12	312	7
TAP	12	336	6
STR	12	360	7
SI_	12	360	7	96	48	3
TAP	13	24	0
TAP	13	72	1
TAP	13	192	1
TAP	13	216	6
TAP	13	240	0
TAP	13	264	7
BRK	13	288	1
BRK	13	288	6
TAP	14	0	4
TAP	14	24	3
TAP	14	48	5
STR	14	72	4
SI_	14	72	4	96	48	0
TAP	14	120	3
TAP	14	168	2
TAP	14	288	7
TAP	14	312	0
TAP	14	336	6
STR	14	360	7
SI_	14	360	7	96	48	3
TAP	15	24	0
TAP	15	72	1
TAP	15	192	2
TAP	15	216	3
TAP	15	240	1
TAP	15	264	1
TAP	15	288	5
TAP	15	312	4
TAP	15	336	6
TAP	15	360	6
TAP	16	0	3
TAP	16	24	4
TAP	16	48	2
STR	16	72	3
SI_	16	72	3	96	48	7
TAP	16	120	4
TAP	16	168	5
TAP	16	288	0
TAP	16	312	7
TAP	16	336	0
TAP	16	360	7
HLD	17	0	3	72
HLD	17	0	7	72
HLD	17	96	1	72
HLD	17	96	5	72
TAP	17	192	0
HLD	17	192	4	72
TAP	17	216	1
TAP	17	240	2
TAP	17	264	3
HLD	17	288	0	72
TAP	17	288	4
TAP	17	312	5
TAP	17	336	6
TAP	17	360	7
HLD	18	0	0	72
TAP	18	0	4
TAP	18	72	7
HLD	18	96	0	48
TAP	18	144	6
HLD	18	192	0	72
TAP	18	192	6
TAP	18	264	5
HLD	18	288	0	48
TAP	18	336	4
HLD	19	0	0	72
TAP	19	0	4
TAP	19	72	2
HLD	19	96	0	48
TAP	19	144	3
STR	19	192	0
SI_	19	192	0	96	48	4
STR	19	192	3
SI_	19	192	3	96	48	7
TAP	20	0	3
HLD	20	0	7	72
TAP	20	72	0
HLD	20	96	7	48
TAP	20	144	1
TAP	20	192	1
HLD	20	192	7	72
TAP	20	264	2
HLD	20	288	7	48
TAP	20	336	3
TAP	21	0	3
HLD	21	0	7	72
TAP	21	72	5
HLD	21	96	7	48
TAP	21	144	4
TAP	21	192	4
TAP	21	192	7
BRK	21	240	0
BRK	21	240	3
TAP	21	336	1
TAP	21	336	6
STR	22	0	1
SLR	22	0	1	96	96	7
TAP	22	72	3
TAP	22	96	1
TAP	22	96	3
TAP	22	144	5
STR	22	192	6
SLL	22	192	6	96	96	0
TAP	22	264	4
TAP	22	288	4
TAP	22	288	6
TAP	22	336	2
STR	23	0	2
SLL	23	0	2	96	96	4
TAP	23	72	0
TAP	23	96	0
TAP	23	96	2
TAP	23	144	6
STR	23	192	5
SLR	23	192	5	96	96	3
TAP	23	264	7
TAP	23	288	5
TAP	23	288	7
TAP	23	336	1
HLD	24	0	0	144
TAP	24	144	7
TAP	24	168	7
TAP	24	192	0
TAP	24	216	7
TAP	24	240	1
TAP	24	264	6
TAP	24	288	2
TAP	24	312	5
TAP	24	336	1
TAP	24	360	4
TAP	25	0	0
TAP	25	24	5
TAP	25	48	1
TAP	25	72	6
TAP	25	96	2
TAP	25	120	7
TAP	25	144	3
TAP	25	168	0
TAP	25	192	2
TAP	25	208	3
TAP	25	224	4
TAP	25	240	7
TAP	25	256	6
TAP	25	272	5
TAP	25	288	0
TAP	25	304	1
TAP	25	320	2
TAP	25	336	6
TAP	25	352	5
TAP	25	368	4
BRK	26	0	3
BRK	26	0	7
TAP	26	144	1
STR	26	152	2
SXL	26	152	2	96	1288	5
TAP	26	160	3
TAP	26	168	4
STR	27	0	7
SI_	27	0	7	96	24	2
TAP	27	72	7
STR	28	0	5
SI_	28	0	5	96	24	0
TAP	28	72	5
TAP	29	0	0
TAP	29	96	6
TAP	29	192	4
TAP	29	288	2
STR	30	0	0
SI_	30	0	0	96	48	4
HLD	30	72	0	120
STR	30	192	7
SI_	30	192	7	96	48	3
HLD	30	264	7	120
TAP	31	0	0
TAP	31	96	3
TAP	31	96	4
TAP	31	192	0
TAP	31	192	2
TAP	31	264	3
TAP	31	264	4
TAP	31	336	5
TAP	31	336	7
TAP	32	48	1
TAP	32	48	6
TAP	32	96	2
TAP	32	96	5
TAP	32	168	2
TAP	32	168	3
TAP	32	216	4
TAP	32	216	5
TAP	32	288	5
TAP	32	312	4
TAP	32	336	3
TAP	32	360	2
TAP	33	0	1
TAP	33	24	4
TAP	33	48	1
TAP	33	72	5
TAP	33	96	1
TAP	33	120	6
TAP	33	144	1
TAP	33	168	7
STR	33	192	0
SI_	33	192	0	96	48	4
STR	33	192	1
SI_	33	192	1	96	48	7
BRK	33	288	0
BRK	33	288	1
HLD	34	0	2	72
TAP	34	0	6
TAP	34	72	3
TAP	34	96	2
TAP	34	96	3
TAP	34	144	0
TAP	34	192	1
HLD	34	192	5	72
TAP	34	264	4
TAP	34	288	4
TAP	34	288	5
TAP	34	336	7
HLD	35	0	2	96
HLD	35	0	6	96
TAP	35	144	2
TAP	35	144	6
TAP	35	168	1
TAP	35	168	5
TAP	35	192	0
TAP	35	192	4
TAP	35	264	2
TAP	35	264	3
TAP	35	336	5
TAP	35	336	7
TAP	36	0	0
TAP	36	0	7
TAP	36	24	1
TAP	36	48	2
TAP	36	72	1
TAP	36	72	3
TAP	36	96	2
TAP	36	120	3
TAP	36	144	2
TAP	36	144	4
TAP	36	168	3
TAP	36	192	4
TAP	36	216	3
TAP	36	216	5
TAP	36	240	4
TAP	36	264	5
BRK	36	288	1
BRK	36	288	6
TAP	36	336	0
TAP	36	336	7
TAP	37	0	2
TAP	37	24	7
TAP	37	48	1
TAP	37	72	4
TAP	37	96	0
TAP	37	120	0
TAP	37	144	5
TAP	37	168	3
TAP	37	192	6
TAP	37	216	6
TAP	37	240	3
TAP	37	264	3
TAP	37	288	4
TAP	37	312	4
TAP	37	336	1
TAP	37	360	1
TAP	38	0	6
TAP	38	24	5
TAP	38	48	4
TAP	38	72	7
TAP	38	96	6
TAP	38	120	5
HLD	38	144	7	48
TAP	38	192	1
TAP	38	216	2
TAP	38	240	3
TAP	38	264	0
TAP	38	288	1
TAP	38	312	2
HLD	38	336	0	48
TAP	39	0	4
TAP	39	24	0
TAP	39	48	5
TAP	39	72	1
TAP	39	96	6
TAP	39	120	2
TAP	39	144	7
TAP	39	168	3
TAP	39	192	0
TAP	39	192	4
TAP	39	240	2
TAP	39	240	6
TAP	39	288	5
TAP	39	304	4
TAP	39	320	3
TAP	39	336	2
HLD	40	0	0	96
STR	40	0	3
SI_	40	0	3	96	48	7
TAP	40	192	3
TAP	40	192	4
TAP	40	240	2
TAP	40	264	1
TAP	40	264	3
TAP	40	312	5
TAP	40	336	4
TAP	40	336	6
STR	41	0	4
SI_	41	0	4	96	48	0
HLD	41	0	7	192
TAP	41	192	0
TAP	41	208	1
TAP	41	208	6
TAP	41	224	2
TAP	41	224	5
TAP	41	240	3
TAP	41	240	4
BRK	41	288	1
BRK	41	288	6
TAP	42	0	1
TAP	42	0	4
TAP	42	48	2
TAP	42	72	3
TAP	42	96	2
TAP	42	144	0
TAP	42	144	1
TAP	42	192	1
HLD	42	192	7	48
TAP	42	240	0
HLD	42	264	1	48
TAP	42	264	7
TAP	42	312	0
TAP	42	336	1
HLD	42	336	7	48
TAP	43	0	3
TAP	43	48	5
TAP	43	72	4
TAP	43	96	5
TAP	43	144	6
TAP	43	144	7
HLD	43	192	0	48
TAP	43	192	6
TAP	43	240	7
TAP	43	264	0
HLD	43	264	6	48
TAP	43	312	7
HLD	43	336	0	48
TAP	43	336	6
TAP	44	0	6
TAP	44	24	6
TAP	44	48	4
TAP	44	72	4
TAP	44	96	3
TAP	44	120	3
TAP	44	144	0
TAP	44	168	0
TAP	44	192	1
TAP	44	216	1
TAP	44	240	3
TAP	44	264	3
TAP	44	288	4
TAP	44	312	4
TAP	44	336	7
TAP	44	360	7
STR	45	0	6
SI_	45	0	6	96	48	2
BRK	45	96	6
STR	45	96	7
SI_	45	96	7	96	48	3
STR	45	192	0
SF_	45	192	0	96	48	4
BRK	45	192	7
BRK	45	288	0
TAP	46	0	0
TAP	46	24	7
TAP	46	48	2
TAP	46	72	3
TAP	46	96	1
TAP	46	120	4
TAP	46	144	2
TAP	46	168	3
TAP	46	192	1
TAP	46	216	0
TAP	46	240	2
TAP	46	264	4
TAP	46	288	3
TAP	46	312	5
TAP	46	336	4
TAP	46	360	6
TAP	47	0	0
TAP	47	24	0
TAP	47	48	7
TAP	47	72	1
TAP	47	96	6
TAP	47	120	0
TAP	47	144	5
TAP	47	168	7
TAP	47	192	4
TAP	47	216	4
TAP	47	240	2
TAP	47	264	3
TAP	47	288	4
TAP	47	312	5
TAP	47	336	2
TAP	47	360	2
TAP	48	0	6
TAP	48	24	4
TAP	48	48	7
TAP	48	72	7
TAP	48	96	1
TAP	48	120	3
TAP	48	144	0
TAP	48	168	0
TAP	48	192	7
TAP	48	204	6
TAP	48	216	5
TAP	48	228	4
TAP	48	240	7
TAP	48	252	6
TAP	48	264	5
TAP	48	276	4
TAP	48	288	0
TAP	48	300	1
TAP	48	312	2
TAP	48	324	3
TAP	48	336	0
TAP	48	348	1
TAP	48	360	2
TAP	48	372	3
STR	49	0	0
SF_	49	0	0	96	48	4
TAP	49	0	4
BRK	49	96	0
TAP	49	288	2
TAP	49	288	6
TAP	50	0	5
TAP	50	48	4
TAP	50	96	3
TAP	50	96	5
HLD	50	192	2	72
TAP	50	192	5
HLD	50	264	3	72
TAP	50	336	4
STR	51	0	4
SI_	51	0	4	96	48	0
TAP	51	96	5
TAP	51	144	5
TAP	51	192	5
TAP	51	216	4
TAP	51	240	3
TAP	51	264	2
TAP	51	288	1
TAP	51	312	0
TAP	51	336	7
TAP	51	360	6
TAP	52	0	2
TAP	52	24	3
TAP	52	48	1
TAP	52	72	1
TAP	52	96	5
TAP	52	120	4
TAP	52	144	6
TAP	52	168	6
TAP	52	192	1
TAP	52	216	2
TAP	52	240	3
TAP	52	264	7
TAP	52	288	6
TAP	52	312	5
TAP	52	336	0
TAP	52	336	4
TAP	53	0	0
TAP	53	16	7
TAP	53	32	0
TAP	53	48	7
TAP	53	64	0
TAP	53	80	7
TAP	53	96	0
TAP	53	112	7
TAP	53	128	0
TAP	53	144	7
TAP	53	160	0
TAP	53	176	7
TAP	53	192	0
TAP	53	208	7
TAP	53	224	0
TAP	53	240	7
TAP	53	256	0
TAP	53	272	7
STR	53	288	0
SI_	53	288	0	96	24	4
BRK	54	0	0
TAP	54	0	5
BRK	54	72	3
STR	54	72	6
SI_	54	72	6	96	24	2
TAP	54	144	0
BRK	54	144	6
BST	54	192	1
SI_	54	192	1	96	24	4
BRK	54	264	1
STR	54	264	5
SI_	54	264	5	96	24	1
BRK	54	336	5
STR	54	336	6
SI_	54	336	6	96	24	3
TAP	55	48	0
BRK	55	48	6
BST	55	96	1
SI_	55	96	1	96	24	4
BST	55	168	6
SI_	55	168	6	96	24	2
BRK	55	216	5
BST	55	264	4
SI_	55	264	4	96	24	7
BRK	55	336	0
BST	56	0	0
SI_	56	0	0	96	24	4
BRK	56	72	0
STR	56	72	5
SI_	56	72	5	96	24	3
STR	56	144	2
SI_	56	144	2	96	24	6
BRK	56	144	5
BRK	56	216	2
STR	56	216	7
SI_	56	216	7	96	24	1
STR	56	288	2
SI_	56	288	2	96	24	4
BRK	56	288	7
BRK	56	360	2
STR	56	360	5
SI_	56	360	5	96	24	1
STR	57	48	0
SI_	57	48	0	96	24	6
BRK	57	48	5
BRK	57	120	0
STR	57	120	3
SI_	57	120	3	96	24	7
STR	57	192	2
SI_	57	192	2	96	24	0
BRK	57	192	3
BRK	57	264	2
STR	57	264	4
SI_	57	264	4	96	24	6
BRK	57	336	4
BRK	57	336	7
HLD	58	0	0	72
HLD	58	72	1	72
TAP	58	144	2
HLD	58	192	6	72
HLD	58	264	5	72
TAP	58	336	4
TAP	59	0	0
HLD	59	0	1	72
HLD	59	72	2	72
TAP	59	144	3
TAP	59	192	0
HLD	59	192	7	72
HLD	59	264	6	72
TAP	59	336	5
HLD	60	0	0	48
HLD	60	0	7	48
HLD	60	72	1	48
HLD	60	72	2	48
TAP	60	144	0
TAP	60	144	1
HLD	60	192	6	48
HLD	60	192	7	48
HLD	60	264	4	48
HLD	60	264	5	48
TAP	60	336	5
TAP	60	336	6
STR	61	0	3
SXR	61	0	3	96	288	0
STR	61	0	7
SXR	61	0	7	96	288	4
STR	62	96	0
SCR	62	96	0	96	48	3
STR	62	96	4
SCR	62	96	4	96	48	7
STR	62	192	0
SI_	62	192	0	96	48	5
STR	62	192	4
SI_	62	192	4	96	48	1
BRK	62	288	0
BRK	62	288	4
STR	63	0	1
SI_	63	0	1	96	48	5
TAP	63	24	0
TAP	63	72	0
TAP	63	96	1
TAP	63	144	7
STR	63	192	6
SI_	63	192	6	96	48	2
TAP	63	216	7
TAP	63	264	7
TAP	63	288	6
TAP	63	336	0
TAP	64	0	1
TAP	64	0	4
TAP	64	48	1
TAP	64	48	4
TAP	64	64	2
TAP	64	64	5
TAP	64	80	3
TAP	64	80	6
TAP	64	96	4
TAP	64	96	7
TAP	64	144	3
TAP	64	144	6
TAP	64	160	2
TAP	64	160	5
TAP	64	176	1
TAP	64	176	4
TAP	64	192	0
HLD	64	192	3	144
TAP	64	288	7
TAP	64	336	4
TAP	64	360	3
STR	65	0	4
SI_	65	0	4	96	48	0
TAP	65	48	5
TAP	65	72	5
TAP	65	120	7
STR	65	144	7
SCL	65	144	7	96	48	4
TAP	65	192	1
TAP	65	192	6
TAP	65	240	0
TAP	65	256	1
TAP	65	272	2
TAP	65	288	3
TAP	65	336	2
TAP	65	336	5
TAP	66	0	3
TAP	66	0	6
TAP	66	48	3
TAP	66	48	6
TAP	66	64	2
TAP	66	64	5
TAP	66	80	1
TAP	66	80	4
TAP	66	96	0
TAP	66	96	3
TAP	66	144	1
TAP	66	144	4
TAP	66	160	2
TAP	66	160	5
TAP	66	176	3
TAP	66	176	6
HLD	66	192	4	96
TAP	66	192	7
TAP	66	288	1
TAP	66	304	2
TAP	66	320	3
TAP	66	336	4
TAP	66	352	5
TAP	66	368	6
STR	67	0	0
SI_	67	0	0	96	48	4
STR	67	0	7
SI_	67	0	7	96	48	3
BRK	67	96	0
BRK	67	96	7
TAP	67	192	1
TAP	67	216	3
TAP	67	240	2
TAP	67	264	4
TAP	67	288	3
TAP	67	312	5
TAP	67	336	4
TAP	67	360	6
HLD	68	0	5	48
TAP	68	48	7
TAP	68	60	6
TAP	68	72	5
TAP	68	84	4
HLD	68	96	3	48
TAP	68	144	0
TAP	68	156	1
TAP	68	168	2
TAP	68	180	3
HLD	68	192	4	96
BRK	68	288	7
TAP	68	336	3
TAP	68	336	7
TAP	69	0	2
TAP	69	24	3
TAP	69	48	1
TAP	69	72	1
TAP	69	96	5
TAP	69	120	4
TAP	69	144	6
TAP	69	168	6
TAP	69	192	2
TAP	69	216	4
TAP	69	240	1
TAP	69	264	6
TAP	69	288	3
TAP	69	312	5
TAP	69	336	0
TAP	69	360	4
TAP	70	0	1
HLD	70	0	5	192
TAP	70	48	1
TAP	70	96	1
TAP	70	144	1
TAP	70	192	7
TAP	70	204	6
TAP	70	216	5
TAP	70	228	4
TAP	70	240	3
TAP	70	252	2
TAP	70	264	1
TAP	70	276	0
BRK	70	288	3
BRK	70	288	7
STR	71	0	1
SCL	71	0	1	96	48	6
TAP	71	24	3
TAP	71	48	2
TAP	71	72	4
TAP	71	96	1
TAP	71	144	5
STR	71	192	6
SCR	71	192	6	96	48	1
TAP	71	216	4
TAP	71	240	5
TAP	71	264	3
TAP	71	288	6
TAP	71	336	2
TAP	72	0	1
TAP	72	0	4
TAP	72	16	2
TAP	72	16	5
TAP	72	32	3
TAP	72	32	6
HLD	72	48	4	48
TAP	72	48	7
TAP	72	96	0
TAP	72	112	1
TAP	72	128	2
TAP	72	144	0
TAP	72	144	3
TAP	72	160	1
TAP	72	160	4
TAP	72	176	2
TAP	72	176	5
STR	72	192	3
SCL	72	192	3	96	48	0
STR	72	192	6
SCL	72	192	6	96	48	3
BRK	72	288	3
BRK	72	288	6
TAP	73	0	1
TAP	73	0	6
TAP	73	48	2
TAP	73	72	1
TAP	73	72	3
TAP	73	120	5
TAP	73	144	4
TAP	73	144	6
TAP	73	192	0
TAP	73	192	7
TAP	73	240	1
TAP	73	264	0
TAP	73	264	2
TAP	73	312	6
TAP	73	336	5
TAP	73	336	7
TAP	74	0	0
TAP	74	0	7
TAP	74	48	1
TAP	74	72	0
TAP	74	96	2
TAP	74	96	7
TAP	74	144	6
TAP	74	168	7
TAP	74	192	0
HLD	74	192	5	96
TAP	74	240	0
TAP	74	288	7
TAP	74	300	6
TAP	74	312	5
TAP	74	324	4
TAP	74	336	3
TAP	74	336	7
TAP	74	348	2
TAP	74	348	6
TAP	74	360	1
TAP	74	360	5
TAP	74	372	0
TAP	74	372	4
HLD	75	0	3	96
HLD	75	0	7	96
TAP	75	144	0
TAP	75	168	4
TAP	75	192	1
TAP	75	216	5
TAP	75	240	2
TAP	75	264	6
TAP	75	288	3
TAP	75	312	7
TAP	75	336	1
TAP	75	360	5
TAP	76	0	2
TAP	76	24	2
TAP	76	48	4
TAP	76	72	3
TAP	76	96	6
TAP	76	120	6
TAP	76	144	4
TAP	76	168	5
BRK	76	192	1
BRK	76	192	4
TAP	76	240	7
BRK	76	264	3
BRK	76	264	6
TAP	76	312	0
BRK	76	336	1
BRK	76	336	4
TAP	77	0	0
TAP	77	0	7
TAP	77	48	1
TAP	77	48	2
TAP	77	96	3
TAP	77	96	4
TAP	77	144	5
TAP	77	144	6
TAP	77	192	2
TAP	77	216	6
TAP	77	240	1
TAP	77	264	5
TAP	77	288	0
TAP	77	312	4
TAP	77	336	7
TAP	77	360	3
HLD	78	0	2	144
HLD	78	0	6	144
TAP	78	192	2
TAP	78	192	6
TAP	78	204	3
TAP	78	204	7
TAP	78	216	0
TAP	78	216	4
TAP	78	228	1
TAP	78	228	5
TAP	78	240	2
TAP	78	240	6
TAP	78	252	3
TAP	78	252	7
TAP	78	264	0
TAP	78	264	4
TAP	78	276	1
TAP	78	276	5
BRK	78	288	2
BRK	78	288	6
TAP	79	0	6
TAP	79	24	6
TAP	79	72	6
TAP	79	72	7
TAP	79	120	5
TAP	79	144	3
TAP	79	168	4
TAP	79	192	1
TAP	79	216	1
TAP	79	264	0
TAP	79	264	1
TAP	79	312	2
TAP	79	336	4
TAP	79	360	3
TAP	80	0	6
TAP	80	24	6
TAP	80	72	6
TAP	80	72	7
TAP	80	120	5
STR	80	144	3
SI_	80	144	3	96	48	1
TAP	80	168	4
STR	80	192	1
SI_	80	192	1	96	48	5
TAP	80	240	3
STR	80	240	5
SI_	80	240	5	96	48	0
TAP	80	288	6
TAP	80	336	7
TAP	81	0	6
TAP	81	24	6
TAP	81	72	6
TAP	81	72	7
TAP	81	120	5
TAP	81	144	3
TAP	81	168	4
TAP	81	192	1
TAP	81	216	1
TAP	81	264	0
TAP	81	264	1
TAP	81	312	2
TAP	81	336	4
TAP	81	360	3
HLD	82	0	5	96
BRK	82	96	0
TAP	82	104	1
HLD	82	112	2	80
BRK	82	192	7
TAP	82	200	6
TAP	82	208	5
BRK	82	264	1
TAP	82	272	2
TAP	82	280	3
BRK	82	336	5
TAP	82	344	4
TAP	82	352	3
TAP	83	0	1
HLD	83	24	1	24
TAP	83	72	0
TAP	83	72	1
TAP	83	120	2
TAP	83	144	5
TAP	83	168	4
TAP	83	192	6
HLD	83	216	6	24
TAP	83	264	6
TAP	83	264	7
TAP	83	312	5
TAP	83	336	2
TAP	83	360	3
TAP	84	0	1
HLD	84	24	1	24
TAP	84	72	0
TAP	84	72	1
TAP	84	120	2
STR	84	144	5
SI_	84	144	5	96	48	7
TAP	84	168	4
STR	84	192	7
SI_	84	192	7	96	48	3
STR	84	240	3
SI_	84	240	3	96	48	0
TAP	84	240	5
TAP	84	288	2
TAP	84	336	1
TAP	85	0	2
TAP	85	24	4
TAP	85	48	3
TAP	85	72	5
TAP	85	96	2
TAP	85	120	4
TAP	85	144	1
TAP	85	168	3
TAP	85	192	2
TAP	85	216	6
TAP	85	240	4
TAP	85	264	5
TAP	85	288	1
TAP	85	312	1
TAP	85	336	5
TAP	85	360	5
TAP	86	0	2
TAP	86	16	3
TAP	86	32	2
TAP	86	48	4
TAP	86	64	3
TAP	86	80	4
TAP	86	96	1
TAP	86	112	3
TAP	86	128	1
TAP	86	144	5
TAP	86	160	3
TAP	86	176	5
TAP	86	192	0
TAP	86	208	4
TAP	86	224	0
TAP	86	240	4
TAP	86	256	0
TAP	86	272	4
BRK	86	288	1
BRK	86	288	5
TAP	87	0	0
TAP	87	0	7
TAP	87	24	0
TAP	87	24	7
TAP	87	72	1
TAP	87	72	2
TAP	87	120	2
TAP	87	120	3
TAP	87	168	3
TAP	87	168	4
TAP	87	216	4
TAP	87	216	5
TAP	87	264	5
TAP	87	264	6
TAP	87	312	0
TAP	87	312	7
TAP	87	336	0
TAP	87	336	7
TAP	87	360	0
STR	87	360	7
SCL	87	360	7	96	696	0
SSR	87	360	7	96	72	3
BRK	88	48	0
BRK	88	48	7

T_REC_TAP	835
T_REC_BRK	66
T_REC_XTP	0
T_REC_HLD	83
T_REC_XHO	0
T_REC_STR	71
T_REC_BST	5
T_REC_XST	0
T_REC_TTP	0
T_REC_THO	0
T_REC_SLD	77
T_REC_ALL	1137
T_NUM_TAP	906
T_NUM_BRK	71
T_NUM_HLD	83
T_NUM_SLD	77
T_NUM_ALL	1137
T_JUDGE_TAP	977
T_JUDGE_HLD	138
T_JUDGE_SLD	77
T_JUDGE_ALL	1192
TTM_EACHPAIRS	188
TTM_SCR_TAP	453000
TTM_SCR_BRK	184600
TTM_SCR_HLD	83000
TTM_SCR_SLD	115500
TTM_SCR_ALL	836100
TTM_SCR_S	804150
TTM_SCR_SS	829000
TTM_RAT_ACV	10085

