VERSION	0.00.00	1.03.00
FES_MODE	0
BPM_DEF	162.000	162.000	162.000	162.000
MET_DEF	4	4
RESOLUTION	384
CLK_DEF	384
COMPATIBLE_CODE	MA2

BPM	0	0	162.000
MET	0	0	4	4

HLD	2	0	6	72
TAP	2	0	7
TAP	2	72	4
TAP	2	144	3
TAP	2	144	5
TAP	2	192	0
HLD	2	192	1	72
TAP	2	264	3
TAP	2	336	2
TAP	2	336	4
HLD	3	0	6	72
TAP	3	0	7
TAP	3	72	4
TAP	3	144	2
TAP	3	144	5
TAP	3	192	0
TAP	3	192	1
TAP	3	240	2
TAP	3	288	3
TAP	3	288	4
TAP	3	336	5
HLD	4	0	6	72
TAP	4	0	7
TAP	4	72	4
TAP	4	144	3
TAP	4	144	5
TAP	4	192	0
HLD	4	192	1	72
TAP	4	264	3
TAP	4	336	2
TAP	4	336	4
STR	5	0	1
SI_	5	0	1	96	48	5
STR	5	0	5
SI_	5	0	5	96	48	1
STR	5	96	1
SCL	5	96	1	96	96	3
TAP	5	96	5
TAP	5	192	3
BRK	5	288	7
HLD	6	0	1	48
HLD	6	0	3	48
TAP	6	72	1
TAP	6	72	3
TAP	6	144	0
TAP	6	144	5
HLD	6	192	4	48
HLD	6	192	6	48
TAP	6	264	4
TAP	6	264	6
TAP	6	336	2
TAP	6	336	7
HLD	7	0	1	48
HLD	7	0	3	48
TAP	7	72	1
TAP	7	72	3
TAP	7	144	0
TAP	7	144	5
TAP	7	192	6
TAP	7	192	7
TAP	7	240	5
TAP	7	288	3
TAP	7	288	4
TAP	7	336	2
HLD	8	0	0	48
HLD	8	0	1	48
TAP	8	72	0
TAP	8	72	1
TAP	8	144	3
TAP	8	144	5
HLD	8	192	6	48
HLD	8	192	7	48
TAP	8	264	6
TAP	8	264	7
TAP	8	336	2
STR	8	336	4
SSL	8	336	4	96	96	0
BRK	9	0	4
STR	9	192	0
SI_	9	192	0	96	48	3
STR	9	192	6
SI_	9	192	6	96	48	1
BRK	9	288	0
BRK	9	288	6
TAP	10	0	5
TAP	10	24	4
TAP	10	48	7
STR	10	72	7
SV_	10	72	7	96	48	4
TAP	10	120	0
TAP	10	168	7
TAP	10	288	2
TAP	10	312	3
TAP	10	336	0
STR	10	360	0
SV_	10	360	0	96	48	3
TAP	11	24	7
TAP	11	72	0
TAP	11	192	5
TAP	11	216	4
TAP	11	240	6
TAP	11	264	6
TAP	11	288	2
TAP	11	312	3
TAP	11	336	1
TAP	11	360	1
TAP	12	0	5
TAP	12	24	4
TAP	12	48	7
STR	12	72	7
SV_	12	72	7	96	48	4
TAP	12	120	0
TAP	12	168	7
TAP	12	288	2
TAP	12	312	3
TAP	12	336	0
STR	12	360	0
SCR	12	360	0	96	48	3
TAP	13	24	7
TAP	13	72	0
TAP	13	192	6
TAP	13	216	7
TAP	13	240	5
TAP	13	264	5
TAP	13	288	1
TAP	13	312	0
TAP	13	336	2
TAP	13	360	2
TAP	14	0	6
TAP	14	24	7
TAP	14	48	4
STR	14	72	4
SV_	14	72	4	96	48	7
TAP	14	120	3
TAP	14	168	4
TAP	14	288	1
TAP	14	312	0
TAP	14	336	3
STR	14	360	3
SV_	14	360	3	96	48	0
TAP	15	24	4
TAP	15	72	3
TAP	15	192	6
TAP	15	216	7
TAP	15	240	5
TAP	15	264	5
TAP	15	288	1
TAP	15	312	0
TAP	15	336	2
TAP	15	360	2
TAP	16	0	6
TAP	16	24	7
TAP	16	48	4
STR	16	72	4
SV_	16	72	4	96	48	7
TAP	16	120	3
TAP	16	168	4
STR	16	288	2
SCL	16	288	2	96	48	7
STR	16	288	6
SCL	16	288	6	96	48	3
BRK	17	96	1
BRK	17	96	5
TAP	17	192	3
TAP	17	192	7
TAP	17	216	6
TAP	17	240	5
TAP	17	264	4
TAP	17	288	0
TAP	17	288	3
TAP	17	312	1
TAP	17	336	2
TAP	17	360	3
HLD	18	0	4	96
TAP	18	72	5
TAP	18	96	5
TAP	18	144	0
TAP	18	144	7
HLD	18	192	3	96
TAP	18	264	2
TAP	18	288	2
TAP	18	336	0
TAP	18	336	7
HLD	19	0	4	96
TAP	19	72	5
STR	19	96	5
SV_	19	96	5	96	96	3
SLR	19	96	5	96	96	3
TAP	19	144	5
BRK	19	336	2
BRK	19	336	5
TAP	20	0	1
TAP	20	24	1
TAP	20	72	0
TAP	20	96	1
TAP	20	144	3
TAP	20	144	4
TAP	20	192	6
TAP	20	216	6
TAP	20	264	7
TAP	20	288	6
TAP	20	336	3
TAP	20	336	4
STR	21	0	1
SLL	21	0	1	96	96	3
STR	21	24	1
SV_	21	24	1	96	72	3
TAP	21	72	0
TAP	21	96	1
BRK	21	240	2
BRK	21	240	5
BRK	21	336	0
BRK	21	336	7
HLD	22	0	6	96
TAP	22	72	5
TAP	22	96	5
TAP	22	144	0
TAP	22	144	7
HLD	22	192	1	96
TAP	22	264	2
TAP	22	288	2
TAP	22	336	3
TAP	22	336	4
TAP	23	0	6
TAP	23	24	6
TAP	23	72	7
TAP	23	96	6
TAP	23	144	4
TAP	23	144	5
TAP	23	192	2
TAP	23	216	2
TAP	23	264	3
TAP	23	288	2
TAP	23	336	0
TAP	23	336	1
BRK	24	0	2
BRK	24	0	6
TAP	24	144	7
TAP	24	168	1
TAP	24	192	4
TAP	24	216	2
TAP	24	240	6
TAP	24	264	3
TAP	24	288	7
TAP	24	312	2
TAP	24	336	5
TAP	24	360	0
TAP	25	0	6
TAP	25	24	1
TAP	25	48	4
TAP	25	72	2
TAP	25	96	7
TAP	25	120	1
TAP	25	144	5
TAP	25	168	0
TAP	25	192	4
TAP	25	216	3
TAP	25	240	4
TAP	25	264	3
TAP	25	288	5
TAP	25	312	2
TAP	25	336	6
TAP	25	360	1
HLD	26	0	7	72
TAP	26	72	0
STR	26	144	6
SXL	26	144	6	96	816	1
TAP	26	152	5
TAP	26	160	4
TAP	26	168	3
STR	27	0	5
SCL	27	0	5	96	192	2
TAP	27	72	5
STR	28	0	2
SCR	28	0	2	96	192	5
TAP	28	72	2
TAP	29	0	2
TAP	29	0	3
TAP	29	96	1
TAP	29	192	4
TAP	29	192	5
TAP	29	288	6
HLD	30	0	1	72
STR	30	0	2
SI_	30	0	2	96	48	4
HLD	30	192	5	72
STR	30	192	6
SI_	30	192	6	96	48	0
TAP	31	0	1
TAP	31	0	6
TAP	31	96	2
TAP	31	96	5
TAP	31	192	3
TAP	31	192	4
TAP	31	264	4
TAP	31	264	6
TAP	31	336	1
TAP	31	336	3
TAP	32	48	0
TAP	32	48	7
STR	32	96	3
SI_	32	96	3	96	48	0
TAP	32	96	4
TAP	32	168	1
TAP	32	168	3
HLD	32	216	1	72
TAP	32	288	7
TAP	32	312	6
TAP	32	336	5
TAP	32	360	4
TAP	33	0	1
TAP	33	24	3
TAP	33	48	1
TAP	33	72	4
TAP	33	96	1
TAP	33	120	5
TAP	33	144	1
TAP	33	168	6
STR	33	192	0
SI_	33	192	0	96	48	4
STR	33	192	7
SI_	33	192	7	96	48	3
BRK	33	288	0
BRK	33	288	7
TAP	34	0	1
TAP	34	0	7
TAP	34	72	2
TAP	34	96	2
TAP	34	96	3
TAP	34	144	7
TAP	34	192	0
TAP	34	192	6
TAP	34	264	5
TAP	34	288	4
TAP	34	288	5
TAP	34	336	0
HLD	35	0	2	96
HLD	35	0	6	96
TAP	35	144	1
TAP	35	144	5
TAP	35	168	0
TAP	35	168	4
BRK	35	192	3
BRK	35	192	7
BRK	35	264	2
BRK	35	264	5
BRK	35	336	0
BRK	35	336	7
TAP	36	0	1
TAP	36	0	4
TAP	36	24	2
TAP	36	48	3
TAP	36	72	0
TAP	36	96	1
TAP	36	120	2
TAP	36	144	7
TAP	36	168	0
TAP	36	192	1
TAP	36	216	6
TAP	36	240	7
TAP	36	264	0
TAP	36	288	5
TAP	36	312	6
TAP	36	336	7
TAP	36	360	0
TAP	37	0	1
TAP	37	0	5
TAP	37	24	2
TAP	37	24	6
TAP	37	48	3
TAP	37	48	7
TAP	37	72	0
TAP	37	72	4
STR	37	96	1
SI_	37	96	1	96	48	6
STR	37	96	5
SI_	37	96	5	96	48	2
TAP	37	192	1
TAP	37	192	5
BRK	37	288	1
BRK	37	288	5
TAP	38	0	6
TAP	38	0	7
TAP	38	48	3
TAP	38	72	2
TAP	38	72	4
TAP	38	120	7
TAP	38	144	7
TAP	38	192	0
TAP	38	192	1
TAP	38	240	4
TAP	38	264	3
TAP	38	264	5
TAP	38	312	0
TAP	38	336	0
TAP	39	0	3
TAP	39	0	4
TAP	39	48	7
TAP	39	72	0
TAP	39	72	6
TAP	39	120	1
TAP	39	144	1
STR	39	192	0
SUL	39	192	0	96	48	3
STR	39	192	7
SUL	39	192	7	96	48	3
TAP	39	240	1
STR	39	288	0
SCR	39	288	0	96	144	6
HLD	40	0	2	144
TAP	40	192	0
TAP	40	192	7
TAP	40	264	2
STR	40	264	3
SCR	40	264	3	96	168	1
TAP	40	336	4
TAP	40	336	5
HLD	41	0	6	144
STR	41	192	7
SF_	41	192	7	96	48	3
BRK	41	288	7
TAP	42	0	0
TAP	42	0	6
TAP	42	96	2
TAP	42	96	4
TAP	42	144	3
TAP	42	192	6
TAP	42	216	7
TAP	42	264	0
TAP	42	264	4
TAP	42	312	2
TAP	42	336	3
TAP	43	0	1
TAP	43	0	7
TAP	43	96	3
TAP	43	96	5
TAP	43	144	4
TAP	43	192	1
TAP	43	216	0
TAP	43	264	3
TAP	43	264	7
TAP	43	312	5
TAP	43	336	4
STR	44	0	0
SI_	44	0	0	96	48	4
TAP	44	48	2
TAP	44	96	0
STR	44	96	7
SI_	44	96	7	96	48	3
TAP	44	144	5
STR	44	192	1
SI_	44	192	1	96	48	5
TAP	44	192	7
TAP	44	240	0
TAP	44	288	1
STR	44	288	6
SI_	44	288	6	96	48	2
TAP	44	336	7
BST	45	0	0
SI_	45	0	0	96	48	4
TAP	45	0	6
BST	45	96	0
SCL	45	96	0	96	48	5
SCR	45	96	0	96	48	3
BST	45	192	0
SF_	45	192	0	96	48	4
BRK	45	288	0
TAP	46	0	0
TAP	46	24	0
TAP	46	48	1
TAP	46	72	1
TAP	46	96	2
TAP	46	120	2
TAP	46	144	3
TAP	46	168	3
TAP	46	192	4
TAP	46	216	4
TAP	46	240	5
TAP	46	264	5
TAP	46	288	6
TAP	46	312	6
TAP	46	336	7
TAP	46	360	7
TAP	47	0	0
TAP	47	24	7
TAP	47	48	1
TAP	47	72	7
TAP	47	96	2
TAP	47	120	7
TAP	47	144	3
TAP	47	168	7
TAP	47	192	4
TAP	47	204	5
TAP	47	216	6
TAP	47	228	7
TAP	47	240	0
TAP	47	252	1
TAP	47	264	2
TAP	47	276	3
BRK	47	288	0
BRK	47	288	4
TAP	48	0	7
TAP	48	24	0
TAP	48	48	7
TAP	48	72	1
TAP	48	96	7
TAP	48	120	2
TAP	48	144	7
TAP	48	168	3
BRK	48	192	3
TAP	48	216	4
TAP	48	240	3
TAP	48	264	5
STR	48	288	3
SI_	48	288	3	96	48	7
TAP	48	312	6
TAP	48	336	3
TAP	48	360	7
BRK	49	96	1
BRK	49	96	5
HLD	50	0	2	96
TAP	50	48	3
HLD	50	96	4	96
TAP	50	192	3
TAP	50	264	3
TAP	50	288	4
HLD	50	336	5	144
TAP	51	48	4
HLD	51	96	3	96
TAP	51	192	4
TAP	51	264	4
TAP	51	288	3
TAP	51	336	2
HLD	52	0	2	96
TAP	52	0	3
HLD	52	96	4	96
TAP	52	192	5
TAP	52	264	5
TAP	52	288	6
HLD	52	336	6	96
TAP	53	48	0
STR	53	96	6
SI_	53	96	6	96	24	0
STR	53	96	7
SI_	53	96	7	96	72	3
TAP	53	192	6
TAP	53	192	7
TAP	53	264	4
TAP	53	336	2
STR	54	0	0
SI_	54	0	0	96	24	4
TAP	54	0	7
TAP	54	72	3
TAP	54	144	5
STR	54	192	6
SI_	54	192	6	96	24	2
TAP	54	192	7
TAP	54	264	3
TAP	54	336	1
TAP	55	48	0
TAP	55	48	7
TAP	55	96	0
TAP	55	96	7
TAP	55	168	1
TAP	55	168	3
TAP	55	216	3
TAP	55	216	4
TAP	55	264	4
HLD	55	264	6	72
TAP	55	336	0
BST	56	0	7
SI_	56	0	7	96	24	3
BST	56	72	0
SI_	56	72	0	96	24	5
BST	56	144	6
SI_	56	144	6	96	24	3
BST	56	216	1
SI_	56	216	1	96	24	4
BST	56	288	7
SI_	56	288	7	96	24	2
BST	56	360	5
SI_	56	360	5	96	24	0
BST	57	48	3
SI_	57	48	3	96	24	6
BST	57	120	1
SI_	57	120	1	96	24	4
BST	57	192	7
SI_	57	192	7	96	24	3
BST	57	264	5
SI_	57	264	5	96	24	1
TAP	57	336	0
TAP	58	0	7
TAP	58	72	4
HLD	58	72	5	72
TAP	58	144	7
TAP	58	192	0
HLD	58	264	2	72
TAP	58	264	3
TAP	58	336	0
TAP	59	0	6
TAP	59	0	7
TAP	59	72	4
HLD	59	72	5	72
TAP	59	144	7
TAP	59	192	0
TAP	59	192	1
HLD	59	264	2	72
TAP	59	264	3
TAP	59	336	0
TAP	60	0	5
TAP	60	0	7
TAP	60	72	4
HLD	60	72	6	72
TAP	60	144	7
TAP	60	192	0
TAP	60	192	2
HLD	60	264	1	72
TAP	60	264	3
STR	60	336	0
SSR	60	336	0	96	336	4
BRK	61	0	0
BST	61	0	7
SI_	61	0	7	96	288	3
BRK	62	96	2
BRK	62	96	5
BST	62	192	0
SSL	62	192	0	96	48	4
BST	62	192	7
SSR	62	192	7	96	48	3
BRK	62	288	0
BRK	62	288	7
TAP	63	0	2
TAP	63	24	2
TAP	63	24	3
TAP	63	72	0
TAP	63	96	1
TAP	63	96	7
TAP	63	144	3
TAP	63	144	4
TAP	63	192	5
TAP	63	216	4
TAP	63	216	5
TAP	63	264	7
TAP	63	288	0
TAP	63	288	6
TAP	63	336	3
TAP	63	336	4
TAP	64	0	1
TAP	64	24	0
TAP	64	48	2
TAP	64	72	2
TAP	64	96	6
TAP	64	120	7
TAP	64	144	5
STR	64	192	3
SXL	64	192	3	96	48	5
STR	64	192	4
SXR	64	192	4	96	48	2
TAP	64	240	1
TAP	64	240	6
TAP	64	288	3
TAP	64	288	4
HLD	65	0	7	72
TAP	65	48	3
HLD	65	72	3	72
TAP	65	120	0
HLD	65	144	0	48
TAP	65	192	1
TAP	65	240	6
TAP	65	240	7
TAP	65	288	4
TAP	65	288	5
TAP	65	336	2
TAP	65	336	3
TAP	66	0	2
TAP	66	24	3
TAP	66	48	2
TAP	66	72	1
STR	66	96	2
SI_	66	96	2	96	48	0
TAP	66	120	3
TAP	66	144	2
TAP	66	168	1
STR	66	192	2
SI_	66	192	2	96	48	4
SI_	66	192	2	96	48	6
HLD	67	0	0	96
BRK	67	96	7
TAP	67	144	6
TAP	67	168	4
TAP	67	192	6
TAP	67	240	3
TAP	67	240	5
TAP	67	288	1
TAP	67	288	3
STR	67	336	1
SXL	67	336	1	96	144	5
TAP	67	336	7
TAP	68	48	1
TAP	68	48	5
TAP	68	96	6
TAP	68	144	7
HLD	68	192	0	96
BRK	68	288	7
TAP	68	336	1
TAP	68	336	6
TAP	68	360	2
TAP	68	360	5
TAP	69	0	3
TAP	69	0	4
TAP	69	48	0
TAP	69	72	1
TAP	69	72	7
TAP	69	120	5
TAP	69	144	5
TAP	69	192	0
TAP	69	192	7
TAP	69	240	4
TAP	69	264	3
TAP	69	264	5
TAP	69	312	1
TAP	69	336	1
BRK	70	0	2
BRK	70	0	6
TAP	70	144	2
TAP	70	144	5
TAP	70	168	2
TAP	70	168	5
STR	70	192	3
SSR	70	192	3	96	48	7
STR	70	192	4
SSL	70	192	4	96	48	0
TAP	70	240	1
TAP	70	240	6
BRK	70	288	3
BRK	70	288	4
TAP	71	0	1
TAP	71	24	0
TAP	71	24	1
TAP	71	72	3
TAP	71	96	2
TAP	71	96	4
TAP	71	144	0
TAP	71	144	7
TAP	71	192	6
TAP	71	216	6
TAP	71	216	7
TAP	71	264	4
TAP	71	288	3
TAP	71	288	5
TAP	71	336	0
TAP	71	336	7
BRK	72	0	3
BRK	72	0	4
TAP	72	48	3
TAP	72	48	4
TAP	72	64	2
TAP	72	64	5
TAP	72	80	1
TAP	72	80	6
TAP	72	96	0
TAP	72	96	7
TAP	72	144	0
TAP	72	144	7
TAP	72	160	1
TAP	72	160	6
TAP	72	176	2
TAP	72	176	5
STR	72	192	3
SI_	72	192	3	96	48	0
STR	72	192	4
SI_	72	192	4	96	48	7
BRK	72	288	3
BRK	72	288	4
HLD	73	0	2	72
TAP	73	48	7
HLD	73	72	7	72
TAP	73	120	4
HLD	73	144	4	48
BRK	73	192	5
BRK	73	264	2
BRK	73	264	3
BRK	73	336	1
BRK	73	336	6
BRK	74	48	2
TAP	74	72	1
TAP	74	72	3
TAP	74	96	0
TAP	74	96	4
BRK	74	144	6
TAP	74	168	5
TAP	74	168	7
TAP	74	192	0
STR	74	192	4
SCR	74	192	4	96	36	7
TAP	74	240	4
TAP	74	288	0
TAP	74	300	1
TAP	74	312	2
TAP	74	324	3
TAP	74	336	0
TAP	74	348	1
TAP	74	360	2
TAP	74	372	3
HLD	75	0	0	144
BRK	75	0	4
TAP	75	144	7
TAP	75	168	2
TAP	75	192	5
TAP	75	216	1
TAP	75	240	4
TAP	75	264	3
TAP	75	288	6
TAP	75	312	0
TAP	75	336	7
TAP	75	360	2
TAP	76	0	3
TAP	76	0	4
TAP	76	48	1
TAP	76	48	6
TAP	76	96	0
TAP	76	96	4
TAP	76	108	7
TAP	76	120	6
TAP	76	132	5
TAP	76	144	4
TAP	76	156	3
TAP	76	168	2
TAP	76	180	1
BRK	76	192	0
BRK	76	192	7
TAP	76	264	1
TAP	76	264	3
TAP	76	336	4
TAP	76	336	6
TAP	77	0	2
TAP	77	24	3
TAP	77	48	1
TAP	77	72	1
TAP	77	96	5
TAP	77	120	4
TAP	77	144	6
TAP	77	168	6
TAP	77	192	2
TAP	77	216	3
TAP	77	240	0
TAP	77	264	0
TAP	77	288	5
TAP	77	312	4
TAP	77	336	7
TAP	77	360	7
BST	78	0	0
SI_	78	0	0	96	24	5
BRK	78	72	0
STR	78	72	7
SI_	78	72	7	96	24	3
STR	78	144	1
SI_	78	144	1	96	24	4
BRK	78	144	7
BRK	78	216	1
TAP	78	216	6
BRK	78	288	0
BRK	78	288	7
TAP	79	0	7
TAP	79	24	7
TAP	79	72	0
TAP	79	72	6
TAP	79	120	5
TAP	79	144	4
TAP	79	144	5
TAP	79	192	0
TAP	79	216	0
TAP	79	264	1
TAP	79	264	7
TAP	79	312	2
TAP	79	336	2
TAP	79	336	3
TAP	80	0	7
TAP	80	24	7
TAP	80	72	0
TAP	80	72	6
TAP	80	120	5
TAP	80	144	4
TAP	80	144	5
TAP	80	192	0
TAP	80	192	1
TAP	80	240	2
TAP	80	288	3
TAP	80	288	4
TAP	80	336	5
TAP	81	0	6
TAP	81	24	6
TAP	81	72	5
TAP	81	72	7
TAP	81	120	3
TAP	81	144	3
TAP	81	144	4
TAP	81	192	1
TAP	81	216	1
TAP	81	264	0
TAP	81	264	2
TAP	81	312	4
TAP	81	336	3
TAP	81	336	4
STR	82	0	0
SV_	82	0	0	96	48	3
STR	82	0	6
SV_	82	0	6	96	48	3
BRK	82	96	0
BRK	82	96	6
STR	82	192	3
SV_	82	192	3	96	48	0
SV_	82	192	3	96	48	6
BRK	82	288	3
TAP	83	0	1
TAP	83	24	0
TAP	83	24	1
TAP	83	72	2
TAP	83	72	7
TAP	83	120	4
TAP	83	120	5
TAP	83	144	4
TAP	83	144	5
TAP	83	192	6
TAP	83	216	6
TAP	83	216	7
TAP	83	264	0
TAP	83	264	5
TAP	83	312	2
TAP	83	312	3
TAP	83	336	2
TAP	83	336	3
TAP	84	0	1
TAP	84	24	0
TAP	84	24	1
TAP	84	72	2
TAP	84	72	7
TAP	84	120	4
TAP	84	120	5
TAP	84	144	4
TAP	84	144	5
TAP	84	192	6
TAP	84	192	7
TAP	84	240	0
TAP	84	240	1
TAP	84	288	2
TAP	84	288	3
TAP	84	336	4
TAP	84	336	5
TAP	85	0	0
TAP	85	24	6
TAP	85	48	2
TAP	85	72	5
TAP	85	96	1
TAP	85	120	7
TAP	85	144	3
TAP	85	168	6
TAP	85	192	0
TAP	85	216	5
TAP	85	240	2
TAP	85	264	4
TAP	85	288	1
TAP	85	312	5
TAP	85	336	2
TAP	85	360	6
TAP	86	0	3
TAP	86	0	7
TAP	86	24	4
TAP	86	48	5
TAP	86	72	6
TAP	86	96	3
TAP	86	96	7
TAP	86	120	0
TAP	86	144	1
TAP	86	168	2
STR	86	192	3
SI_	86	192	3	96	48	7
TAP	86	192	7
TAP	86	204	4
TAP	86	216	5
TAP	86	228	6
TAP	86	240	7
TAP	86	252	0
TAP	86	264	1
TAP	86	276	2
BRK	86	288	3
BRK	86	288	7
TAP	87	0	1
TAP	87	0	6
TAP	87	24	1
TAP	87	24	6
TAP	87	72	4
TAP	87	72	5
TAP	87	120	2
TAP	87	120	3
TAP	87	168	4
TAP	87	168	6
TAP	87	216	1
TAP	87	216	3
TAP	87	264	4
TAP	87	264	7
TAP	87	312	0
TAP	87	312	7
STR	87	336	0
SSL	87	336	0	96	96	4
TAP	87	336	7
STR	87	360	0
SCR	87	360	0	96	696	7
TAP	87	360	7
BRK	88	48	0

T_REC_TAP	732
T_REC_BRK	67
T_REC_XTP	0
T_REC_HLD	51
T_REC_XHO	0
T_REC_STR	61
T_REC_BST	17
T_REC_XST	0
T_REC_TTP	0
T_REC_THO	0
T_REC_SLD	82
T_REC_ALL	1010
T_NUM_TAP	793
T_NUM_BRK	84
T_NUM_HLD	51
T_NUM_SLD	82
T_NUM_ALL	1010
T_JUDGE_TAP	877
T_JUDGE_HLD	94
T_JUDGE_SLD	82
T_JUDGE_ALL	1053
TTM_EACHPAIRS	232
TTM_SCR_TAP	396500
TTM_SCR_BRK	218400
TTM_SCR_HLD	51000
TTM_SCR_SLD	123000
TTM_SCR_ALL	788900
TTM_SCR_S	757100
TTM_SCR_SS	780500
TTM_RAT_ACV	10107

