VERSION	0.00.00	1.03.00
FES_MODE	0
BPM_DEF	162.000	162.000	162.000	162.000
MET_DEF	4	4
RESOLUTION	384
CLK_DEF	384
COMPATIBLE_CODE	MA2

BPM	0	0	162.000

BST	1	192	0
SI_	1	192	0	96	48	4
BST	1	192	6
SI_	1	192	6	96	48	3
HLD	2	0	2	72
TAP	2	72	3
TAP	2	144	1
TAP	2	144	4
HLD	2	192	5	72
TAP	2	264	4
TAP	2	336	3
TAP	2	336	6
HLD	3	0	2	72
TAP	3	72	3
TAP	3	144	1
TAP	3	144	4
HLD	3	192	1	96
TAP	3	192	4
TAP	3	288	0
HLD	4	0	6	72
TAP	4	72	7
TAP	4	144	0
TAP	4	144	5
HLD	4	192	1	72
TAP	4	264	0
TAP	4	336	2
TAP	4	336	7
TAP	5	0	2
STR	5	0	7
SI_	5	0	7	96	48	3
TAP	5	96	0
HLD	5	192	1	72
TAP	5	192	4
HLD	5	264	2	72
TAP	5	336	3
HLD	6	0	5	72
TAP	6	72	4
TAP	6	144	3
TAP	6	144	6
HLD	6	192	2	72
TAP	6	264	3
TAP	6	336	1
TAP	6	336	4
HLD	7	0	5	72
TAP	7	72	4
TAP	7	144	3
TAP	7	144	6
TAP	7	192	3
HLD	7	192	6	96
TAP	7	288	7
HLD	8	0	1	72
TAP	8	72	0
TAP	8	144	2
TAP	8	144	7
HLD	8	192	6	72
TAP	8	264	7
TAP	8	336	0
TAP	8	336	5
STR	9	0	0
SI_	9	0	0	96	48	4
TAP	9	0	5
STR	9	96	7
SI_	9	96	7	96	48	3
TAP	9	192	1
BRK	9	288	0
BRK	9	288	2
TAP	10	0	4
STR	10	0	6
SI_	10	0	6	96	48	0
STR	10	96	1
SI_	10	96	1	96	48	5
TAP	10	192	4
TAP	10	288	4
STR	10	288	6
SI_	10	288	6	96	48	2
STR	11	0	1
SI_	11	0	1	96	48	7
TAP	11	96	6
TAP	11	192	5
TAP	11	240	5
TAP	11	288	4
TAP	11	288	6
STR	12	0	1
SI_	12	0	1	96	48	7
TAP	12	0	3
STR	12	96	6
SI_	12	96	6	96	48	2
TAP	12	192	3
STR	12	288	1
SI_	12	288	1	96	48	5
TAP	12	288	3
STR	13	0	6
SI_	13	0	6	96	48	0
TAP	13	96	1
STR	13	192	1
SI_	13	192	1	96	48	4
STR	13	192	7
SI_	13	192	7	96	48	3
STR	14	0	2
SI_	14	0	2	96	48	7
TAP	14	0	5
STR	14	96	6
SI_	14	96	6	96	48	2
TAP	14	192	0
STR	14	288	1
SI_	14	288	1	96	48	4
TAP	14	288	3
STR	15	0	5
SI_	15	0	5	96	48	1
STR	15	96	3
SUR	15	96	3	96	144	4
TAP	16	0	3
STR	16	0	6
SI_	16	0	6	96	48	1
STR	16	96	2
SI_	16	96	2	96	48	5
STR	16	192	7
SI_	16	192	7	96	48	3
STR	16	288	1
SCL	16	288	1	96	120	4
TAP	17	0	4
TAP	17	192	7
TAP	17	240	7
TAP	17	288	3
TAP	17	288	7
TAP	18	0	1
HLD	18	0	5	144
TAP	18	48	2
TAP	18	96	3
TAP	18	144	4
TAP	18	192	4
TAP	18	192	5
TAP	18	240	3
TAP	18	240	6
TAP	18	288	2
TAP	18	288	7
HLD	19	0	2	144
TAP	19	0	6
TAP	19	48	5
TAP	19	96	4
TAP	19	144	3
TAP	19	192	2
TAP	19	192	3
TAP	19	240	1
TAP	19	240	4
TAP	19	288	0
TAP	19	288	5
HLD	20	0	1	144
TAP	20	0	5
TAP	20	48	6
TAP	20	96	7
TAP	20	144	0
TAP	20	192	0
TAP	20	192	1
TAP	20	240	2
TAP	20	240	7
TAP	20	288	3
STR	20	288	6
SI_	20	288	6	96	48	2
STR	21	0	1
SI_	21	0	1	96	48	5
TAP	21	96	4
TAP	21	192	4
TAP	21	192	6
BRK	21	240	3
BST	21	240	7
SI_	21	240	7	96	48	3
TAP	21	336	1
HLD	22	0	1	72
HLD	22	72	2	72
TAP	22	144	3
HLD	22	192	6	72
HLD	22	264	5	72
TAP	22	336	4
TAP	23	0	2
TAP	23	0	3
TAP	23	72	4
TAP	23	72	5
TAP	23	144	3
TAP	23	144	6
STR	23	192	3
SI_	23	192	3	96	48	0
STR	23	192	6
SI_	23	192	6	96	48	3
TAP	24	0	1
TAP	24	48	1
TAP	24	96	5
TAP	24	144	5
TAP	24	192	1
TAP	24	216	7
TAP	24	240	1
TAP	24	264	7
TAP	24	288	0
TAP	24	312	6
TAP	24	336	0
TAP	24	360	6
HLD	25	0	7	96
STR	25	96	6
SCL	25	96	6	96	96	2
BRK	25	192	1
HLD	26	0	2	384
STR	26	72	3
SUR	26	72	3	96	120	7
HLD	27	0	5	384
STR	27	72	4
SUL	27	72	4	96	120	0
HLD	28	0	1	384
STR	28	72	0
SUL	28	72	0	96	120	3
HLD	29	0	3	96
HLD	29	96	5	96
HLD	29	192	7	96
TAP	29	288	0
HLD	30	0	3	48
HLD	30	0	5	48
TAP	30	72	3
TAP	30	72	5
TAP	30	144	3
TAP	30	144	5
HLD	30	192	2	48
HLD	30	192	4	48
TAP	30	264	2
TAP	30	264	4
TAP	30	336	2
TAP	30	336	4
TAP	31	0	1
TAP	31	48	1
TAP	31	96	3
TAP	31	144	3
TAP	31	192	4
TAP	31	240	4
TAP	31	288	6
TAP	31	336	6
TAP	32	0	5
TAP	32	0	7
TAP	32	48	0
TAP	32	48	4
TAP	32	96	1
HLD	32	96	3	72
TAP	32	168	2
TAP	32	216	2
TAP	32	216	3
TAP	32	288	1
TAP	32	288	6
TAP	33	0	0
TAP	33	24	7
TAP	33	48	0
TAP	33	72	7
TAP	33	96	0
TAP	33	120	7
TAP	33	144	0
TAP	33	168	7
TAP	33	192	0
TAP	33	216	7
TAP	33	240	0
BRK	33	288	1
BST	33	288	6
SCL	33	288	6	96	144	1
TAP	34	0	7
TAP	34	192	0
TAP	34	240	0
STR	34	288	0
SCR	34	288	0	96	144	5
TAP	35	0	7
TAP	35	192	6
TAP	35	240	6
TAP	35	288	6
TAP	35	288	7
TAP	36	0	5
TAP	36	48	5
TAP	36	72	4
TAP	36	120	4
TAP	36	144	6
TAP	36	192	2
TAP	36	240	2
TAP	36	264	3
TAP	36	312	3
TAP	36	336	1
STR	37	0	7
SI_	37	0	7	96	48	2
SI_	37	0	7	96	48	4
STR	37	192	1
SI_	37	192	1	96	48	4
SI_	37	192	1	96	48	6
TAP	38	0	5
TAP	38	48	5
TAP	38	72	4
TAP	38	120	4
TAP	38	144	6
TAP	38	192	2
TAP	38	240	2
TAP	38	264	3
TAP	38	312	3
TAP	38	336	1
TAP	39	0	6
TAP	39	48	6
TAP	39	72	7
TAP	39	120	7
TAP	39	144	5
STR	39	192	0
SI_	39	192	0	96	48	4
TAP	39	240	0
TAP	39	288	7
BST	40	0	2
SI_	40	0	2	96	48	7
BST	40	0	5
SI_	40	0	5	96	48	0
HLD	40	192	1	72
TAP	40	264	0
TAP	40	336	2
TAP	40	336	7
STR	41	0	2
SI_	41	0	2	96	48	5
TAP	41	0	7
HLD	41	192	6	72
TAP	41	264	7
TAP	41	336	0
TAP	41	336	5
TAP	42	0	0
STR	42	0	5
SCR	42	0	5	96	48	0
TAP	42	96	1
HLD	42	192	2	72
TAP	42	264	3
TAP	42	336	1
TAP	42	336	4
STR	43	0	1
SCR	43	0	1	96	48	4
TAP	43	0	4
TAP	43	96	7
TAP	43	192	6
TAP	43	192	7
TAP	43	264	3
TAP	43	264	4
TAP	43	336	0
TAP	43	336	1
TAP	44	0	2
TAP	44	0	7
TAP	44	48	6
TAP	44	96	0
TAP	44	96	5
TAP	44	144	1
TAP	44	192	2
TAP	44	192	7
TAP	44	240	6
STR	44	288	0
SI_	44	288	0	96	48	4
TAP	44	288	5
STR	45	0	7
SI_	45	0	7	96	48	3
STR	45	96	0
SI_	45	96	0	96	48	5
STR	45	192	7
SI_	45	192	7	96	48	2
BRK	45	288	0
TAP	46	0	1
TAP	46	24	0
TAP	46	48	1
TAP	46	96	1
TAP	46	120	0
TAP	46	144	1
TAP	46	192	1
TAP	46	216	7
TAP	46	240	1
TAP	46	288	1
TAP	46	312	6
TAP	46	336	1
TAP	47	0	5
TAP	47	24	4
TAP	47	48	5
TAP	47	96	5
TAP	47	120	4
TAP	47	144	5
TAP	47	192	5
TAP	47	216	3
TAP	47	240	5
TAP	47	288	5
TAP	47	312	2
TAP	47	336	5
TAP	48	0	2
TAP	48	24	3
TAP	48	48	2
TAP	48	96	5
TAP	48	120	4
TAP	48	144	5
TAP	48	192	1
TAP	48	216	0
TAP	48	240	1
TAP	48	288	6
TAP	48	312	7
TAP	48	336	6
STR	49	0	0
SF_	49	0	0	96	96	4
BRK	49	288	2
BRK	49	288	6
HLD	50	0	2	96
TAP	50	0	3
HLD	50	96	3	96
TAP	50	192	2
TAP	50	264	2
TAP	50	264	4
TAP	50	336	3
HLD	50	336	5	96
TAP	51	48	4
HLD	51	96	5	96
TAP	51	192	4
TAP	51	264	3
TAP	51	264	5
TAP	51	336	2
TAP	51	336	4
HLD	52	0	2	96
TAP	52	0	4
HLD	52	96	3	96
TAP	52	192	2
TAP	52	264	2
TAP	52	264	4
TAP	52	336	3
TAP	52	336	5
STR	53	0	3
SUR	53	0	3	96	96	0
STR	53	0	5
SUL	53	0	5	96	96	0
TAP	53	288	1
TAP	53	288	6
HLD	54	0	3	48
HLD	54	0	5	48
HLD	54	72	2	48
HLD	54	72	4	48
TAP	54	144	1
TAP	54	144	3
HLD	54	192	2	48
HLD	54	192	4	48
HLD	54	264	3	48
HLD	54	264	5	48
TAP	54	336	4
TAP	54	336	6
TAP	55	0	5
TAP	55	0	6
TAP	55	96	3
HLD	55	96	7	96
HLD	55	192	1	72
TAP	55	264	0
TAP	55	336	0
TAP	55	336	5
HLD	56	0	0	72
TAP	56	0	5
HLD	56	72	1	72
HLD	56	144	2	72
HLD	56	216	3	72
HLD	56	288	4	72
HLD	56	360	5	72
HLD	57	48	6	72
HLD	57	120	7	72
HLD	57	192	0	72
TAP	57	264	7
TAP	57	336	0
TAP	57	336	1
TAP	58	0	0
STR	58	0	1
SI_	58	0	1	96	48	4
TAP	58	72	7
TAP	58	144	6
STR	58	192	6
SI_	58	192	6	96	48	3
TAP	58	264	0
TAP	58	336	1
STR	59	0	1
SI_	59	0	1	96	48	5
TAP	59	72	6
TAP	59	144	7
STR	59	192	7
SI_	59	192	7	96	48	3
TAP	59	264	1
TAP	59	336	0
STR	60	0	0
SI_	60	0	0	96	48	4
TAP	60	72	7
TAP	60	144	6
STR	60	192	6
SI_	60	192	6	96	48	2
TAP	60	264	2
TAP	60	336	1
STR	61	0	0
SXR	61	0	0	96	240	4
STR	61	0	1
SXL	61	0	1	96	240	5
BST	62	96	2
SI_	62	96	2	96	48	6
BST	62	192	5
SI_	62	192	5	96	48	1
BRK	62	288	0
TAP	63	0	2
TAP	63	48	2
TAP	63	72	3
TAP	63	120	3
TAP	63	144	0
TAP	63	192	5
TAP	63	240	5
TAP	63	264	4
TAP	63	312	4
TAP	63	336	7
STR	64	0	0
SI_	64	0	0	96	48	4
TAP	64	48	1
STR	64	96	2
SI_	64	96	2	96	48	6
TAP	64	288	0
TAP	64	288	5
TAP	64	336	6
TAP	64	360	7
TAP	65	0	6
TAP	65	48	5
TAP	65	72	4
TAP	65	120	4
TAP	65	144	7
TAP	65	192	2
TAP	65	240	2
TAP	65	264	3
TAP	65	312	3
TAP	65	336	0
STR	66	0	7
SI_	66	0	7	96	48	3
TAP	66	48	6
STR	66	96	5
SI_	66	96	5	96	48	1
BRK	66	288	0
BRK	66	288	7
TAP	67	0	1
TAP	67	48	1
TAP	67	72	3
TAP	67	120	3
TAP	67	144	0
TAP	67	192	6
TAP	67	240	6
TAP	67	264	4
TAP	67	312	4
TAP	67	336	7
TAP	68	0	0
TAP	68	0	5
TAP	68	48	1
TAP	68	96	2
TAP	68	96	7
TAP	68	144	6
BRK	68	192	0
BRK	68	192	5
TAP	68	336	6
TAP	68	360	7
HLD	69	0	6	96
TAP	69	96	4
HLD	69	144	3	96
TAP	69	144	5
TAP	69	240	4
TAP	69	288	2
TAP	69	288	5
TAP	70	0	1
TAP	70	0	4
TAP	70	48	1
TAP	70	48	4
TAP	70	96	2
TAP	70	96	7
TAP	70	144	2
TAP	70	144	7
TAP	70	192	1
TAP	70	216	3
TAP	70	240	1
TAP	70	264	3
BRK	70	288	1
TAP	71	0	2
TAP	71	48	2
TAP	71	72	0
TAP	71	120	0
TAP	71	144	3
TAP	71	192	5
TAP	71	240	5
TAP	71	264	7
TAP	71	312	7
TAP	71	336	4
STR	72	0	3
SI_	72	0	3	96	48	7
TAP	72	48	2
STR	72	96	1
SI_	72	96	1	96	48	5
TAP	72	288	3
TAP	72	288	6
TAP	72	336	5
TAP	72	360	4
HLD	73	0	5	72
TAP	73	72	4
TAP	73	144	1
TAP	73	144	3
BRK	73	192	1
BRK	73	192	3
BRK	73	264	3
BRK	73	264	4
BST	73	336	4
SI_	73	336	4	96	48	0
BRK	73	336	6
TAP	74	48	7
TAP	74	96	7
TAP	74	192	6
TAP	74	216	1
TAP	74	240	6
TAP	74	264	1
TAP	74	288	7
TAP	74	312	0
TAP	74	336	7
TAP	74	360	0
BST	75	0	1
SI_	75	0	1	96	48	4
SI_	75	0	1	96	48	6
BRK	75	0	6
BST	75	192	5
SI_	75	192	5	96	48	0
SI_	75	192	5	96	48	2
TAP	76	0	1
TAP	76	0	3
TAP	76	48	0
TAP	76	96	7
TAP	76	144	6
TAP	76	192	3
TAP	76	192	5
TAP	76	264	2
TAP	76	264	4
TAP	76	336	1
TAP	76	336	5
TAP	77	0	2
TAP	77	0	3
TAP	77	48	2
TAP	77	48	3
TAP	77	96	4
TAP	77	96	5
TAP	77	144	4
TAP	77	144	5
TAP	77	192	3
TAP	77	216	4
TAP	77	240	2
TAP	77	264	5
TAP	77	288	3
TAP	77	312	4
TAP	77	336	2
TAP	77	360	5
BRK	78	0	1
BRK	78	0	6
BRK	78	72	4
BRK	78	72	5
BRK	78	144	2
BRK	78	144	3
BRK	78	192	2
BST	78	192	3
SF_	78	192	3	96	48	7
HLD	79	0	5	72
TAP	79	72	4
TAP	79	144	3
TAP	79	144	6
HLD	79	192	2	72
TAP	79	264	3
TAP	79	336	1
TAP	79	336	4
HLD	80	0	5	72
TAP	80	72	4
TAP	80	144	3
TAP	80	144	6
STR	80	192	6
SI_	80	192	6	96	48	2
STR	80	240	0
SI_	80	240	0	96	48	4
HLD	81	0	5	72
TAP	81	72	4
TAP	81	144	3
TAP	81	144	6
HLD	81	192	2	72
TAP	81	264	3
TAP	81	336	1
TAP	81	336	4
TAP	82	0	1
STR	82	0	4
SCR	82	0	4	96	48	7
STR	82	96	2
SCL	82	96	2	96	48	7
STR	82	192	3
SI_	82	192	3	96	48	7
TAP	82	288	0
TAP	83	0	4
HLD	83	0	6	72
TAP	83	72	7
TAP	83	144	0
TAP	83	144	5
HLD	83	192	1	72
TAP	83	192	3
TAP	83	264	0
TAP	83	336	2
TAP	83	336	7
TAP	84	0	4
HLD	84	0	6	72
TAP	84	72	7
TAP	84	144	0
TAP	84	144	5
STR	84	192	0
SI_	84	192	0	96	48	4
STR	84	240	6
SI_	84	240	6	96	48	2
TAP	85	0	0
TAP	85	48	1
TAP	85	96	2
TAP	85	144	3
TAP	85	192	4
TAP	85	192	7
TAP	85	240	6
TAP	85	288	5
TAP	85	336	4
TAP	86	0	3
TAP	86	24	4
TAP	86	48	5
TAP	86	72	6
TAP	86	96	7
TAP	86	120	0
TAP	86	144	1
TAP	86	168	2
TAP	86	192	3
TAP	86	192	7
BRK	86	288	1
BRK	86	288	5
HLD	87	0	0	48
HLD	87	0	1	48
TAP	87	72	0
TAP	87	72	1
TAP	87	120	0
TAP	87	120	1
TAP	87	168	0
TAP	87	168	1
TAP	87	216	2
TAP	87	216	7
TAP	87	264	2
TAP	87	264	7
TAP	87	312	3
TAP	87	312	6
BST	87	360	3
SCL	87	360	3	96	696	4
BRK	87	360	6
BRK	88	48	4
BRK	90	0	3

T_REC_TAP	475
T_REC_BRK	32
T_REC_XTP	0
T_REC_HLD	74
T_REC_XHO	0
T_REC_STR	65
T_REC_BST	13
T_REC_XST	0
T_REC_TTP	0
T_REC_THO	0
T_REC_SLD	82
T_REC_ALL	741
T_NUM_TAP	540
T_NUM_BRK	45
T_NUM_HLD	74
T_NUM_SLD	82
T_NUM_ALL	741
T_JUDGE_TAP	585
T_JUDGE_HLD	155
T_JUDGE_SLD	82
T_JUDGE_ALL	822
TTM_EACHPAIRS	148
TTM_SCR_TAP	270000
TTM_SCR_BRK	117000
TTM_SCR_HLD	74000
TTM_SCR_SLD	123000
TTM_SCR_ALL	584000
TTM_SCR_S	562150
TTM_SCR_SS	579500
TTM_RAT_ACV	10077

