VERSION	0.00.00	1.03.00
FES_MODE	0
BPM_DEF	162.000	162.000	162.000	162.000
MET_DEF	4	4
RESOLUTION	384
CLK_DEF	384
COMPATIBLE_CODE	MA2

BPM	0	0	162.000

TAP	2	0	2
TAP	2	96	1
TAP	2	96	3
TAP	2	192	4
TAP	2	288	3
TAP	2	288	5
TAP	3	0	2
TAP	3	96	1
TAP	3	96	3
TAP	3	192	4
TAP	3	240	4
TAP	3	288	4
TAP	4	0	3
TAP	4	0	5
TAP	4	96	4
TAP	4	192	1
TAP	4	192	3
TAP	4	288	2
STR	5	0	3
SI_	5	0	3	96	144	0
STR	5	0	5
SI_	5	0	5	96	144	0
TAP	6	0	6
TAP	6	96	5
TAP	6	96	7
TAP	6	192	0
TAP	6	288	1
TAP	6	288	7
TAP	7	0	6
TAP	7	96	5
TAP	7	96	7
TAP	7	192	3
TAP	7	192	4
TAP	7	240	3
TAP	7	240	4
TAP	7	288	3
TAP	7	288	4
TAP	8	0	1
TAP	8	96	0
TAP	8	96	2
TAP	8	192	7
STR	8	288	0
SCR	8	288	0	96	192	3
STR	8	288	6
SI_	8	288	6	96	192	3
BRK	9	288	1
BRK	9	288	5
TAP	10	0	2
TAP	10	96	1
TAP	10	96	3
TAP	10	192	0
TAP	10	192	4
TAP	10	288	5
TAP	11	0	4
TAP	11	0	6
TAP	11	96	3
TAP	11	96	7
HLD	11	192	1	96
TAP	11	288	0
TAP	12	0	7
TAP	12	96	0
TAP	12	96	6
TAP	12	192	1
TAP	12	192	5
TAP	12	288	2
TAP	13	0	1
TAP	13	0	3
STR	13	96	0
SI_	13	96	0	96	96	4
TAP	14	0	5
TAP	14	96	4
TAP	14	96	6
TAP	14	192	3
TAP	14	192	7
TAP	14	288	2
TAP	15	0	1
TAP	15	0	3
TAP	15	96	0
TAP	15	96	4
HLD	15	192	6	96
TAP	15	288	7
TAP	16	0	0
TAP	16	0	1
TAP	16	96	2
TAP	16	96	3
TAP	16	192	4
TAP	16	192	5
STR	16	288	6
SLR	16	288	6	96	240	4
TAP	17	288	3
TAP	18	0	2
TAP	18	96	3
TAP	18	96	5
TAP	18	192	6
TAP	18	288	5
TAP	18	288	7
TAP	19	0	4
TAP	19	96	1
TAP	19	96	3
TAP	19	192	0
TAP	19	240	0
TAP	19	288	0
TAP	19	288	7
TAP	20	0	4
TAP	20	0	6
TAP	20	96	5
TAP	20	192	2
TAP	20	192	4
STR	20	288	1
SI_	20	288	1	96	96	6
STR	21	96	5
SI_	21	96	5	96	96	2
TAP	21	288	1
TAP	22	0	1
TAP	22	0	3
TAP	22	96	0
TAP	22	192	4
TAP	22	192	6
TAP	22	288	7
TAP	23	0	2
TAP	23	0	3
TAP	23	96	4
TAP	23	96	5
TAP	23	192	0
TAP	23	192	7
TAP	23	240	0
TAP	23	240	7
TAP	23	288	0
TAP	23	288	7
HLD	24	0	5	96
HLD	24	96	4	96
HLD	24	192	3	96
STR	24	288	2
SSL	24	288	2	96	240	6
STR	26	0	7
SUL	26	0	7	96	192	3
STR	27	0	0
SUR	27	0	0	96	192	4
STR	28	0	6
SUL	28	0	6	96	192	1
HLD	29	0	0	96
HLD	29	0	7	96
TAP	29	192	1
TAP	29	192	6
STR	29	288	5
SCR	29	288	5	96	240	2
TAP	31	0	3
TAP	31	0	5
TAP	31	96	2
TAP	31	96	4
TAP	31	192	3
TAP	31	192	6
TAP	31	288	1
TAP	31	288	4
STR	32	0	0
SSL	32	0	0	96	192	4
HLD	33	0	5	96
HLD	33	96	6	96
TAP	33	192	7
BRK	33	288	0
BRK	33	288	5
TAP	34	0	1
TAP	34	0	4
TAP	34	96	2
TAP	34	96	3
TAP	34	192	4
TAP	34	192	5
TAP	34	288	3
TAP	34	288	6
TAP	35	0	2
TAP	35	0	7
TAP	35	96	0
TAP	35	96	1
TAP	35	192	6
TAP	35	192	7
TAP	35	288	0
TAP	35	288	5
TAP	36	0	6
TAP	36	48	6
TAP	36	96	7
TAP	36	192	1
TAP	36	240	1
TAP	36	288	0
TAP	37	0	1
TAP	37	0	3
TAP	37	96	3
TAP	37	96	4
TAP	37	192	4
TAP	37	192	6
TAP	37	288	7
TAP	38	0	5
TAP	38	48	5
TAP	38	96	4
TAP	38	192	2
TAP	38	240	2
TAP	38	288	3
TAP	39	0	1
TAP	39	48	1
TAP	39	96	3
TAP	39	192	6
TAP	39	240	6
STR	39	288	4
SCL	39	288	4	96	192	0
TAP	40	288	6
TAP	40	288	7
TAP	41	0	5
TAP	41	0	6
TAP	41	96	4
TAP	41	96	5
TAP	41	192	3
TAP	41	192	4
BRK	41	288	1
BRK	41	288	6
HLD	42	0	0	96
HLD	42	0	2	96
TAP	42	192	1
TAP	42	192	3
TAP	42	288	0
TAP	42	288	2
HLD	43	0	5	96
HLD	43	0	7	96
TAP	43	192	4
TAP	43	192	6
TAP	43	288	5
TAP	43	288	7
STR	44	0	6
SI_	44	0	6	96	96	1
STR	44	192	2
SI_	44	192	2	96	96	5
TAP	45	0	6
TAP	45	96	4
TAP	45	96	5
TAP	45	192	2
TAP	45	192	3
TAP	45	288	1
TAP	45	288	4
TAP	46	0	5
TAP	46	48	5
TAP	46	96	4
TAP	46	192	2
TAP	46	240	2
TAP	46	288	3
TAP	47	0	6
TAP	47	48	6
TAP	47	96	7
TAP	47	192	1
TAP	47	240	1
TAP	47	288	0
TAP	48	0	1
TAP	48	0	7
TAP	48	96	3
TAP	48	96	5
TAP	48	192	0
TAP	48	192	6
TAP	48	288	2
TAP	48	288	4
STR	49	0	3
SF_	49	0	3	96	192	7
HLD	50	0	5	192
HLD	50	192	4	192
HLD	51	0	3	384
TAP	51	192	2
HLD	52	0	1	192
HLD	52	192	7	384
HLD	53	0	0	192
HLD	54	0	5	96
TAP	54	96	4
HLD	54	192	1	96
TAP	54	288	3
HLD	55	0	6	96
TAP	55	96	5
HLD	55	192	1	96
TAP	55	288	0
TAP	56	0	0
TAP	56	0	1
TAP	56	96	7
TAP	56	192	4
TAP	56	192	6
TAP	56	288	5
TAP	57	0	3
TAP	57	0	4
TAP	57	96	2
TAP	57	192	1
TAP	57	192	3
TAP	57	288	0
TAP	57	288	7
STR	58	0	6
SI_	58	0	6	96	96	4
STR	58	192	1
SI_	58	192	1	96	96	3
STR	59	0	6
SI_	59	0	6	96	96	3
STR	59	192	1
SI_	59	192	1	96	96	4
STR	60	0	6
SI_	60	0	6	96	96	2
STR	60	192	1
SI_	60	192	1	96	96	5
STR	61	0	6
SXR	61	0	6	96	288	3
BRK	62	96	1
BRK	62	96	3
BRK	62	192	4
BRK	62	192	6
BRK	62	288	0
BRK	62	288	5
TAP	63	0	3
TAP	63	0	6
TAP	63	96	1
TAP	63	96	4
TAP	63	192	2
TAP	63	240	2
TAP	63	288	2
TAP	63	288	3
STR	64	0	5
SCR	64	0	5	96	192	2
TAP	65	0	0
TAP	65	0	5
TAP	65	96	2
TAP	65	96	7
TAP	65	192	1
TAP	65	240	1
TAP	65	288	0
TAP	65	288	1
STR	66	0	6
SCL	66	0	6	96	192	1
TAP	67	0	0
TAP	67	0	7
TAP	67	96	4
TAP	67	96	6
TAP	67	192	1
TAP	67	192	3
TAP	67	288	3
TAP	67	288	4
BRK	68	0	1
BRK	68	0	3
BRK	68	96	2
BRK	68	96	6
BRK	68	192	0
BRK	68	192	4
STR	69	0	2
SI_	69	0	2	96	96	7
STR	69	192	6
SI_	69	192	6	96	96	3
TAP	70	0	2
TAP	70	96	0
TAP	70	96	1
TAP	70	192	6
TAP	70	192	7
TAP	70	240	6
TAP	70	240	7
BRK	70	288	0
BRK	70	288	5
TAP	71	0	2
TAP	71	0	7
TAP	71	96	4
TAP	71	96	5
TAP	71	192	2
TAP	71	240	2
TAP	71	288	1
TAP	71	288	3
STR	72	0	0
SCR	72	0	0	96	192	5
TAP	73	0	0
TAP	73	0	5
TAP	73	96	2
TAP	73	96	3
TAP	73	192	5
TAP	73	240	5
TAP	73	288	4
TAP	73	288	6
STR	74	0	7
SCL	74	0	7	96	192	2
STR	75	0	0
SI_	75	0	0	96	96	4
STR	75	192	6
SI_	75	192	6	96	96	2
BRK	76	0	0
BRK	76	96	1
BRK	76	96	7
BRK	76	192	2
BRK	76	192	6
TAP	77	0	0
TAP	77	0	1
TAP	77	48	0
TAP	77	48	1
TAP	77	96	2
TAP	77	96	7
TAP	77	192	6
TAP	77	192	7
TAP	77	240	6
TAP	77	240	7
TAP	77	288	0
TAP	77	288	5
HLD	78	0	7	192
BST	78	192	0
SI_	78	192	0	96	48	4
TAP	79	0	5
TAP	79	96	4
TAP	79	96	6
TAP	79	192	2
TAP	79	288	1
TAP	79	288	3
TAP	80	0	6
TAP	80	96	5
TAP	80	96	7
TAP	80	192	0
TAP	80	240	0
TAP	80	288	1
TAP	80	288	7
TAP	81	0	2
TAP	81	0	3
TAP	81	96	1
TAP	81	96	4
TAP	81	192	4
TAP	81	192	5
TAP	81	288	3
TAP	81	288	6
HLD	82	0	2	96
HLD	82	0	7	96
BRK	82	192	1
BRK	82	192	5
BRK	82	288	3
BRK	82	288	7
TAP	83	0	0
TAP	83	0	1
TAP	83	96	2
TAP	83	96	7
TAP	83	192	6
TAP	83	192	7
TAP	83	288	0
TAP	83	288	5
TAP	84	0	0
TAP	84	0	1
TAP	84	96	2
TAP	84	96	7
TAP	84	192	4
TAP	84	192	5
TAP	84	240	4
TAP	84	240	5
TAP	84	288	3
TAP	84	288	6
TAP	85	0	1
TAP	85	0	4
TAP	85	96	2
TAP	85	96	3
TAP	85	192	4
TAP	85	192	5
STR	85	288	6
SSL	85	288	6	96	192	2
TAP	86	288	0
TAP	86	288	1
TAP	87	0	0
HLD	87	0	7	72
TAP	87	72	0
TAP	87	120	0
TAP	87	120	7
TAP	87	168	0
TAP	87	168	7
TAP	87	216	0
TAP	87	216	7
TAP	87	264	0
TAP	87	264	7
TAP	87	312	0
TAP	87	312	7
TAP	87	360	0
TAP	87	360	7
BRK	88	48	1
BRK	88	48	6

T_REC_TAP	341
T_REC_BRK	31
T_REC_XTP	0
T_REC_HLD	27
T_REC_XHO	0
T_REC_STR	34
T_REC_BST	1
T_REC_XST	0
T_REC_TTP	0
T_REC_THO	0
T_REC_SLD	35
T_REC_ALL	469
T_NUM_TAP	375
T_NUM_BRK	32
T_NUM_HLD	27
T_NUM_SLD	35
T_NUM_ALL	469
T_JUDGE_TAP	407
T_JUDGE_HLD	76
T_JUDGE_SLD	35
T_JUDGE_ALL	518
TTM_EACHPAIRS	149
TTM_SCR_TAP	187500
TTM_SCR_BRK	83200
TTM_SCR_HLD	27000
TTM_SCR_SLD	52500
TTM_SCR_ALL	350200
TTM_SCR_S	336600
TTM_SCR_SS	347000
TTM_RAT_ACV	10092

