VERSION	0.00.00	1.03.00
FES_MODE	0
BPM_DEF	162.000	162.000	162.000	162.000
MET_DEF	4	4
RESOLUTION	384
CLK_DEF	384
COMPATIBLE_CODE	MA2

BPM	0	0	162.000
MET	0	0	4	4

TAP	2	0	3
TAP	2	96	3
TAP	2	192	3
TAP	3	0	4
TAP	3	96	4
TAP	3	192	4
TAP	4	0	3
TAP	4	96	3
TAP	4	192	4
TAP	4	288	4
TAP	5	0	3
TAP	5	0	4
TAP	5	96	3
TAP	5	96	4
TAP	5	192	2
TAP	5	192	5
TAP	6	0	7
TAP	6	96	7
TAP	6	192	7
TAP	7	0	0
TAP	7	96	0
TAP	7	192	0
TAP	8	0	7
TAP	8	96	7
TAP	8	192	0
TAP	8	288	0
BRK	9	0	0
BRK	9	0	7
TAP	10	0	0
TAP	10	96	1
TAP	10	192	2
TAP	10	288	2
TAP	11	0	3
TAP	11	96	4
TAP	11	192	4
TAP	11	288	3
TAP	11	288	5
TAP	12	0	6
TAP	12	96	7
TAP	12	192	0
TAP	12	288	0
TAP	13	0	1
TAP	13	96	2
TAP	13	192	1
TAP	13	192	3
TAP	14	0	3
TAP	14	96	2
TAP	14	192	1
TAP	14	288	1
TAP	15	0	0
TAP	15	96	7
TAP	15	192	7
TAP	15	288	0
TAP	15	288	6
TAP	16	0	5
TAP	16	96	4
TAP	16	192	3
TAP	16	288	3
TAP	17	0	3
TAP	17	0	4
TAP	17	96	2
TAP	17	96	5
BRK	17	192	1
BRK	17	192	6
HLD	18	0	0	192
TAP	19	0	7
TAP	19	96	7
TAP	19	192	6
TAP	19	192	7
HLD	20	0	5	192
TAP	21	0	4
TAP	21	96	4
TAP	21	192	3
TAP	21	192	4
HLD	22	0	2	192
TAP	23	0	1
TAP	23	96	1
TAP	23	192	0
TAP	23	192	1
HLD	24	0	7	192
TAP	25	0	0
TAP	25	0	7
TAP	25	96	1
TAP	25	96	6
BRK	25	192	2
BRK	25	192	5
STR	26	0	3
SI_	26	0	3	96	288	0
STR	28	0	7
SI_	28	0	7	96	288	4
STR	30	0	5
SI_	30	0	5	96	288	2
STR	32	0	1
SI_	32	0	1	96	288	6
TAP	33	192	0
TAP	33	192	7
TAP	34	0	0
TAP	34	96	1
TAP	34	192	2
TAP	34	288	3
TAP	35	0	4
TAP	35	96	5
TAP	35	192	4
TAP	35	192	6
TAP	36	0	4
TAP	36	96	5
TAP	36	192	6
TAP	36	288	7
TAP	37	0	0
TAP	37	96	1
TAP	37	192	0
TAP	37	192	2
TAP	38	0	3
TAP	38	96	2
TAP	38	192	1
TAP	38	288	0
TAP	39	0	7
TAP	39	96	6
TAP	39	192	5
TAP	39	192	7
TAP	40	0	7
TAP	40	96	6
TAP	40	192	5
TAP	40	288	4
TAP	41	0	3
TAP	41	96	2
TAP	41	192	1
TAP	41	192	3
TAP	42	0	2
TAP	42	96	2
TAP	42	192	3
TAP	42	192	4
TAP	42	288	4
TAP	42	288	5
TAP	43	0	5
TAP	43	96	5
TAP	43	192	3
TAP	43	192	4
TAP	43	288	2
TAP	43	288	3
TAP	44	0	1
TAP	44	96	0
TAP	44	192	7
TAP	44	288	6
TAP	45	0	0
TAP	45	0	7
TAP	45	96	0
TAP	45	96	7
TAP	45	192	1
TAP	45	192	6
TAP	46	0	5
TAP	46	48	5
TAP	46	96	5
TAP	46	192	4
TAP	46	192	5
TAP	47	0	3
TAP	47	48	3
TAP	47	96	3
TAP	47	192	2
TAP	47	192	3
TAP	48	0	4
TAP	48	48	3
TAP	48	96	4
TAP	48	192	3
TAP	48	192	4
HLD	48	288	3	192
HLD	48	288	4	192
TAP	50	0	5
TAP	50	192	5
TAP	51	0	6
TAP	51	96	6
TAP	51	192	6
TAP	52	0	7
TAP	52	192	7
TAP	53	0	0
TAP	53	96	7
TAP	53	192	0
TAP	53	192	7
TAP	54	0	1
TAP	54	96	1
TAP	54	192	1
TAP	55	0	2
TAP	55	192	2
TAP	56	0	3
TAP	56	96	4
TAP	56	192	4
TAP	56	192	5
TAP	56	288	4
TAP	56	288	5
TAP	57	0	4
TAP	57	96	3
TAP	57	192	2
TAP	57	192	3
TAP	57	288	2
TAP	57	288	3
HLD	58	0	3	96
HLD	58	192	4	96
HLD	59	0	2	96
HLD	59	0	3	96
HLD	59	192	4	96
HLD	59	192	5	96
TAP	60	0	3
TAP	60	0	4
TAP	60	96	2
TAP	60	96	5
TAP	60	192	1
TAP	60	192	6
TAP	60	288	0
TAP	60	288	7
HLD	61	0	0	384
HLD	61	0	7	384
TAP	63	0	0
TAP	63	48	0
TAP	63	96	0
TAP	63	192	1
TAP	63	240	1
TAP	63	288	1
TAP	64	0	2
TAP	64	48	2
TAP	64	96	2
TAP	64	192	2
TAP	64	192	3
TAP	64	288	2
TAP	64	288	3
TAP	65	0	4
TAP	65	48	4
TAP	65	96	4
TAP	65	192	5
TAP	65	240	5
TAP	65	288	5
TAP	66	0	6
TAP	66	48	6
TAP	66	96	6
TAP	66	192	6
TAP	66	192	7
TAP	67	0	7
TAP	67	48	7
TAP	67	96	7
TAP	67	192	6
TAP	67	240	6
TAP	67	288	6
TAP	68	0	5
TAP	68	48	5
TAP	68	96	5
TAP	68	192	4
TAP	68	192	5
TAP	68	288	4
TAP	68	288	5
TAP	69	0	3
TAP	69	48	3
TAP	69	96	3
TAP	69	192	2
TAP	69	240	2
TAP	69	288	2
TAP	70	0	1
TAP	70	48	1
TAP	70	96	1
TAP	70	192	0
TAP	70	192	7
TAP	71	0	0
TAP	71	48	0
TAP	71	96	0
TAP	71	192	1
TAP	71	240	1
TAP	71	288	1
TAP	72	0	2
TAP	72	48	3
TAP	72	96	2
TAP	72	192	1
TAP	72	192	4
TAP	73	0	4
TAP	73	48	4
TAP	73	96	4
TAP	73	192	5
TAP	73	240	5
TAP	73	288	5
TAP	74	0	6
TAP	74	48	7
TAP	74	96	6
TAP	74	192	0
TAP	74	192	5
TAP	75	0	7
TAP	75	48	7
TAP	75	96	7
TAP	75	192	6
TAP	75	240	6
TAP	75	288	6
TAP	76	0	5
TAP	76	48	4
TAP	76	96	5
TAP	76	192	3
TAP	76	192	6
TAP	77	0	3
TAP	77	48	3
TAP	77	96	3
TAP	77	192	2
TAP	77	240	2
TAP	77	288	2
TAP	78	0	1
TAP	78	48	0
TAP	78	96	1
BRK	78	192	2
BRK	78	192	7
TAP	79	0	0
TAP	79	96	0
TAP	79	192	0
TAP	80	0	1
TAP	80	96	1
TAP	80	192	1
TAP	81	0	2
TAP	81	96	2
TAP	81	192	3
TAP	81	288	3
TAP	82	0	3
TAP	82	0	4
TAP	82	96	3
TAP	82	96	4
TAP	82	192	2
TAP	82	192	5
TAP	83	0	4
TAP	83	96	4
TAP	83	192	4
TAP	84	0	5
TAP	84	96	5
TAP	84	192	5
TAP	85	0	6
TAP	85	96	6
TAP	85	192	7
TAP	85	288	7
TAP	86	0	0
TAP	86	0	7
TAP	86	96	0
TAP	86	96	7
TAP	86	192	1
TAP	86	192	6
TAP	87	0	0
TAP	87	0	7
TAP	87	96	0
TAP	87	96	7
HLD	87	192	0	240
HLD	87	192	7	240

T_REC_TAP	309
T_REC_BRK	8
T_REC_XTP	0
T_REC_HLD	16
T_REC_XHO	0
T_REC_STR	4
T_REC_BST	0
T_REC_XST	0
T_REC_TTP	0
T_REC_THO	0
T_REC_SLD	4
T_REC_ALL	341
T_NUM_TAP	313
T_NUM_BRK	8
T_NUM_HLD	16
T_NUM_SLD	4
T_NUM_ALL	341
T_JUDGE_TAP	321
T_JUDGE_HLD	62
T_JUDGE_SLD	4
T_JUDGE_ALL	387
TTM_EACHPAIRS	63
TTM_SCR_TAP	156500
TTM_SCR_BRK	20800
TTM_SCR_HLD	16000
TTM_SCR_SLD	6000
TTM_SCR_ALL	199300
TTM_SCR_S	192550
TTM_SCR_SS	198500
TTM_RAT_ACV	10040

