VERSION	0.00.00	1.03.00
FES_MODE	0
BPM_DEF	169.300	169.300	169.300	169.300
MET_DEF	4	4
RESOLUTION	384
CLK_DEF	384
COMPATIBLE_CODE	MA2

BPM	0	0	169.300

HLD	1	0	2	64
TAP	1	64	3
TAP	1	160	3
HLD	1	192	2	64
TAP	1	256	3
TAP	1	352	3
TAP	2	0	2
TAP	2	64	2
TAP	2	96	4
TAP	2	160	4
TAP	2	192	3
TAP	2	256	3
TAP	2	288	5
HLD	3	0	5	64
TAP	3	64	4
TAP	3	160	4
HLD	3	192	5	64
TAP	3	256	4
TAP	3	352	4
TAP	4	0	5
TAP	4	64	5
TAP	4	96	3
TAP	4	160	3
TAP	4	192	4
TAP	4	256	4
TAP	4	288	2
TAP	5	0	3
TAP	5	0	7
TAP	5	96	4
TAP	5	96	5
TAP	5	192	0
TAP	5	192	4
TAP	5	288	2
TAP	5	288	3
HLD	6	0	4	96
HLD	6	0	5	96
HLD	6	192	2	96
HLD	6	192	3	96
TAP	7	0	0
TAP	7	0	4
TAP	7	96	2
TAP	7	96	3
TAP	7	192	3
TAP	7	192	7
TAP	7	288	4
TAP	7	288	5
HLD	8	0	2	96
HLD	8	0	3	96
HLD	8	192	4	96
HLD	8	192	5	96
TAP	9	0	5
TAP	9	64	5
TAP	9	96	3
TAP	9	160	3
TAP	9	192	4
TAP	9	256	4
TAP	9	288	2
STR	10	0	1
SI_	10	0	1	96	48	5
STR	10	0	2
SI_	10	0	2	96	48	5
HLD	10	192	4	96
HLD	10	192	6	96
STR	11	0	0
SCR	11	0	0	96	48	2
TAP	11	0	4
TAP	11	96	5
STR	11	192	3
SCL	11	192	3	96	48	1
TAP	11	192	7
TAP	11	288	6
TAP	12	0	5
TAP	12	0	7
TAP	12	96	3
TAP	12	96	4
TAP	12	192	0
TAP	12	192	2
TAP	12	288	0
TAP	12	288	7
TAP	13	0	3
STR	13	0	7
SCL	13	0	7	96	48	5
TAP	13	96	2
TAP	13	192	0
STR	13	192	4
SCR	13	192	4	96	48	6
TAP	13	288	1
TAP	14	0	0
TAP	14	0	2
TAP	14	96	3
TAP	14	96	4
TAP	14	192	5
TAP	14	192	7
TAP	14	288	0
TAP	14	288	7
STR	15	0	0
SCR	15	0	0	96	48	2
TAP	15	0	4
TAP	15	96	5
STR	15	192	3
SCL	15	192	3	96	48	1
TAP	15	192	7
TAP	15	288	6
TAP	16	0	5
TAP	16	0	7
TAP	16	96	3
TAP	16	96	4
TAP	16	192	0
TAP	16	192	2
TAP	16	288	0
TAP	16	288	7
TAP	17	0	3
STR	17	0	7
SCL	17	0	7	96	48	5
TAP	17	96	2
TAP	17	192	0
STR	17	192	4
SCR	17	192	4	96	48	6
TAP	17	288	1
TAP	18	0	0
TAP	18	0	2
TAP	18	96	3
TAP	18	96	4
TAP	18	192	5
TAP	18	192	7
TAP	18	288	0
TAP	18	288	7
TAP	19	0	4
TAP	19	0	7
TAP	19	64	3
TAP	19	96	4
TAP	19	192	0
TAP	19	192	3
TAP	20	0	3
TAP	20	0	4
STR	20	96	1
SXL	20	96	1	96	48	3
STR	20	96	6
SXR	20	96	6	96	48	4
HLD	21	0	2	64
TAP	21	64	3
TAP	21	96	2
HLD	21	192	3	64
TAP	21	256	4
TAP	21	288	3
TAP	22	0	5
TAP	22	0	7
BST	22	96	0
SXL	22	96	0	96	96	1
BST	22	96	6
SXR	22	96	6	96	96	5
BRK	22	192	0
BRK	22	192	6
STR	23	0	1
SCR	23	0	1	96	48	4
TAP	23	64	0
TAP	23	96	0
STR	23	192	7
SCL	23	192	7	96	48	4
TAP	23	256	0
TAP	23	288	0
TAP	24	0	2
TAP	24	64	2
TAP	24	96	3
TAP	24	192	1
TAP	24	192	4
TAP	24	288	0
TAP	24	288	7
TAP	25	0	5
TAP	25	64	5
TAP	25	96	3
TAP	25	160	3
TAP	25	192	4
TAP	25	256	4
TAP	25	288	1
TAP	25	352	1
BST	26	0	7
SCR	26	0	7	96	96	2
BST	26	96	2
SCR	26	96	2	96	96	5
BRK	26	192	5
TAP	26	288	0
STR	27	0	6
SCL	27	0	6	96	48	3
TAP	27	64	7
TAP	27	96	7
STR	27	192	0
SCR	27	192	0	96	48	3
TAP	27	256	7
TAP	27	288	7
TAP	28	0	5
TAP	28	64	5
TAP	28	96	4
TAP	28	192	3
TAP	28	192	6
STR	28	288	3
SI_	28	288	3	96	48	0
STR	29	0	4
SI_	29	0	4	96	48	7
STR	29	96	3
SI_	29	96	3	96	48	0
STR	29	192	4
SI_	29	192	4	96	48	7
STR	29	288	2
SUL	29	288	2	96	96	5
STR	30	0	5
SUR	30	0	5	96	96	2
STR	30	96	2
SI_	30	96	2	96	72	7
TAP	30	192	6
TAP	31	0	6
TAP	31	64	6
TAP	31	96	4
TAP	31	160	4
TAP	31	192	3
TAP	31	256	3
TAP	31	288	1
TAP	31	352	1
STR	32	0	0
SI_	32	0	0	96	48	5
STR	32	96	1
SI_	32	96	1	96	48	4
STR	32	192	0
SI_	32	192	0	96	64	5
TAP	32	288	1
STR	33	0	2
SCL	33	0	2	96	48	7
TAP	33	64	3
TAP	33	96	3
STR	33	192	4
SCR	33	192	4	96	48	7
TAP	33	256	3
TAP	33	288	3
TAP	34	0	1
TAP	34	64	1
TAP	34	96	0
TAP	34	192	2
TAP	34	192	7
TAP	34	288	3
TAP	34	288	4
TAP	35	0	2
TAP	35	64	2
TAP	35	96	0
TAP	35	160	0
TAP	35	192	7
TAP	35	256	7
TAP	35	288	5
TAP	35	352	5
STR	36	0	4
SI_	36	0	4	96	48	0
STR	36	96	4
SXL	36	96	4	96	72	6
SXR	36	96	4	96	72	2
STR	37	0	2
SCL	37	0	2	96	48	7
TAP	37	64	3
TAP	37	96	3
STR	37	192	4
SCR	37	192	4	96	48	7
TAP	37	256	3
TAP	37	288	3
TAP	38	0	1
TAP	38	64	1
TAP	38	96	0
TAP	38	192	2
TAP	38	192	7
TAP	38	288	3
TAP	38	288	4
STR	39	0	3
SI_	39	0	3	96	192	7
TAP	39	96	5
STR	39	192	7
SCR	39	192	7	96	192	3
TAP	39	288	5
STR	40	0	3
SI_	40	0	3	96	192	7
TAP	40	96	5
STR	40	192	7
SLR	40	192	7	96	192	3
TAP	40	288	5
STR	41	0	3
SXR	41	0	3	96	144	1
TAP	41	96	4
STR	41	192	3
SUR	41	192	3	96	144	7
TAP	41	288	2
STR	42	0	3
SXR	42	0	3	96	240	0
TAP	42	96	4
TAP	42	192	5
TAP	42	288	6
STR	43	0	7
SI_	43	0	7	96	192	3
TAP	43	96	1
STR	43	192	3
SCR	43	192	3	96	192	7
TAP	43	288	1
STR	44	0	7
SI_	44	0	7	96	192	3
TAP	44	96	1
STR	44	192	3
SLR	44	192	3	96	192	7
TAP	44	288	1
STR	45	0	7
SV_	45	0	7	96	96	5
TAP	45	96	0
STR	45	192	7
SV_	45	192	7	96	96	1
TAP	45	288	6
STR	46	0	7
SUL	46	0	7	96	48	3
SUR	46	0	7	96	48	3
TAP	46	96	7
BRK	46	192	1
BRK	46	192	5
STR	46	288	0
SXR	46	288	0	96	96	0
STR	47	0	0
SCR	47	0	0	96	120	5
TAP	47	0	4
TAP	47	96	5
TAP	47	192	6
TAP	47	288	2
STR	47	288	7
SXL	47	288	7	96	96	7
TAP	48	0	3
STR	48	0	7
SCL	48	0	7	96	120	2
TAP	48	96	2
TAP	48	192	1
TAP	48	288	0
TAP	48	288	5
STR	49	0	6
SCL	49	0	6	96	96	3
STR	49	96	3
SUR	49	96	3	96	96	7
STR	49	192	7
SUR	49	192	7	96	96	3
STR	49	288	3
SCL	49	288	3	96	96	0
TAP	50	0	0
TAP	50	96	3
TAP	50	192	0
TAP	50	192	1
TAP	50	288	2
STR	50	288	7
SXL	50	288	7	96	96	7
TAP	51	0	3
STR	51	0	7
SCL	51	0	7	96	120	2
TAP	51	96	2
TAP	51	192	1
STR	51	288	0
SXR	51	288	0	96	96	0
TAP	51	288	5
STR	52	0	0
SCR	52	0	0	96	120	5
TAP	52	0	4
TAP	52	96	5
TAP	52	192	6
TAP	52	288	2
TAP	52	288	7
STR	53	0	1
SUR	53	0	1	96	96	6
STR	53	96	6
SUL	53	96	6	96	96	1
STR	53	192	1
SCR	53	192	1	96	96	5
STR	53	288	5
SCL	53	288	5	96	96	2
TAP	54	0	1
TAP	54	96	6
TAP	54	192	0
TAP	54	192	4
STR	54	288	3
SXL	54	288	3	96	96	3
STR	55	0	3
SCL	55	0	3	96	120	6
TAP	55	0	7
TAP	55	96	6
TAP	55	192	5
TAP	55	288	1
STR	55	288	4
SXR	55	288	4	96	96	4
TAP	56	0	0
STR	56	0	4
SCR	56	0	4	96	120	1
TAP	56	96	1
TAP	56	192	2
TAP	56	288	3
TAP	56	288	7
STR	57	0	0
SV_	57	0	0	96	48	3
STR	57	0	6
SV_	57	0	6	96	48	3
TAP	57	96	0
TAP	57	96	6
STR	57	192	1
SV_	57	192	1	96	48	4
STR	57	192	7
SV_	57	192	7	96	48	4
TAP	57	288	1
TAP	57	288	7
TAP	58	0	0
STR	58	0	3
SCL	58	0	3	96	48	0
SCR	58	0	3	96	48	6
TAP	58	192	6
TAP	58	192	7
TAP	58	288	1
STR	58	288	4
SXR	58	288	4	96	96	4
TAP	59	0	0
STR	59	0	4
SCR	59	0	4	96	120	1
TAP	59	96	1
TAP	59	192	2
STR	59	288	3
SXL	59	288	3	96	96	3
TAP	59	288	6
STR	60	0	3
SCL	60	0	3	96	120	6
TAP	60	0	7
TAP	60	96	6
TAP	60	192	5
TAP	60	288	0
TAP	60	288	4
STR	61	0	2
SCR	61	0	2	96	96	5
STR	61	96	5
SUL	61	96	5	96	96	1
STR	61	192	1
SCL	61	192	1	96	96	6
STR	61	288	6
SUL	61	288	6	96	96	2
STR	62	0	2
SCR	62	0	2	96	96	6
TAP	62	96	6
TAP	62	192	7
TAP	62	288	1
TAP	62	288	6
TAP	63	0	0
TAP	63	64	0
TAP	63	96	1
TAP	63	160	1
TAP	63	192	2
TAP	63	256	2
TAP	63	288	3
STR	64	0	1
SV_	64	0	1	96	48	3
STR	64	0	6
SV_	64	0	6	96	48	4
STR	64	192	3
SV_	64	192	3	96	48	1
STR	64	192	4
SV_	64	192	4	96	48	6
TAP	65	0	4
TAP	65	64	4
TAP	65	96	5
TAP	65	160	5
TAP	65	192	6
TAP	65	256	6
TAP	65	288	7
TAP	66	0	3
TAP	66	0	4
STR	66	96	3
SI_	66	96	3	96	48	0
STR	66	96	4
SI_	66	96	4	96	48	7
TAP	66	288	0
TAP	66	288	7
TAP	67	0	4
TAP	67	0	6
TAP	67	96	1
TAP	67	96	3
STR	67	192	1
SUL	67	192	1	96	48	5
STR	67	192	6
SUR	67	192	6	96	48	2
TAP	68	0	3
TAP	68	0	4
STR	68	96	3
SV_	68	96	3	96	48	1
STR	68	96	4
SV_	68	96	4	96	48	6
TAP	68	288	2
TAP	68	288	5
TAP	69	0	0
TAP	69	64	0
TAP	69	96	1
TAP	69	160	1
TAP	69	192	2
TAP	69	256	2
TAP	69	288	3
STR	70	0	2
SUL	70	0	2	96	96	5
TAP	70	0	3
STR	70	96	5
SUR	70	96	5	96	96	2
TAP	70	192	6
TAP	70	288	7
TAP	71	0	0
STR	71	0	6
SI_	71	0	6	96	48	3
TAP	71	64	6
TAP	71	96	7
STR	71	192	1
SI_	71	192	1	96	48	4
TAP	71	192	7
TAP	71	256	1
TAP	71	288	0
TAP	72	0	3
TAP	72	0	7
TAP	72	64	2
TAP	72	96	1
TAP	72	96	3
TAP	72	160	4
TAP	72	192	2
TAP	72	192	5
TAP	72	256	1
TAP	72	288	0
TAP	72	288	4
TAP	72	352	5
TAP	73	0	1
TAP	73	0	6
TAP	73	64	0
TAP	73	96	4
TAP	73	96	7
TAP	73	160	5
TAP	73	192	2
TAP	73	192	6
TAP	73	256	0
TAP	73	288	4
TAP	73	288	7
TAP	73	352	5
TAP	74	0	1
TAP	74	0	6
TAP	74	64	1
TAP	74	96	0
TAP	74	160	0
TAP	74	192	7
TAP	74	256	7
TAP	74	288	6
TAP	74	352	6
STR	75	0	1
SI_	75	0	1	96	48	4
TAP	75	0	7
TAP	75	64	1
TAP	75	96	0
TAP	75	192	0
STR	75	192	6
SI_	75	192	6	96	48	3
TAP	75	256	6
TAP	75	288	7
TAP	76	0	0
TAP	76	0	4
TAP	76	64	5
TAP	76	96	4
TAP	76	96	6
TAP	76	160	3
TAP	76	192	2
TAP	76	192	5
TAP	76	256	6
TAP	76	288	3
TAP	76	288	7
TAP	76	352	2
TAP	77	0	1
TAP	77	0	6
TAP	77	64	7
TAP	77	96	0
TAP	77	96	3
TAP	77	160	2
TAP	77	192	1
TAP	77	192	5
TAP	77	256	7
TAP	77	288	0
TAP	77	288	3
TAP	77	352	2
TAP	78	0	1
TAP	78	0	6
TAP	78	64	6
TAP	78	96	7
TAP	78	160	7
TAP	78	192	0
TAP	78	256	0
TAP	78	288	1
TAP	78	352	1
TAP	79	0	2
STR	79	0	6
SI_	79	0	6	96	48	3
TAP	79	64	6
TAP	79	96	7
TAP	79	160	0
STR	79	192	1
SI_	79	192	1	96	48	4
TAP	79	192	5
TAP	79	256	1
TAP	79	288	0
TAP	79	352	7
TAP	80	0	2
TAP	80	0	6
TAP	80	64	1
TAP	80	96	0
TAP	80	96	4
TAP	80	160	5
TAP	80	192	3
TAP	80	192	6
TAP	80	256	2
TAP	80	288	1
TAP	80	288	5
TAP	80	352	6
TAP	81	0	1
TAP	81	0	7
TAP	81	64	0
TAP	81	96	5
TAP	81	96	7
TAP	81	160	6
TAP	81	192	2
TAP	81	192	7
TAP	81	256	0
TAP	81	288	4
TAP	81	288	7
TAP	81	352	6
TAP	82	0	1
TAP	82	64	1
TAP	82	96	0
TAP	82	160	0
TAP	82	192	7
TAP	82	256	7
TAP	82	288	6
TAP	82	352	6
STR	83	0	1
SI_	83	0	1	96	48	4
TAP	83	0	5
TAP	83	64	1
TAP	83	96	0
TAP	83	160	7
TAP	83	192	2
STR	83	192	6
SI_	83	192	6	96	48	3
TAP	83	256	6
TAP	83	288	7
TAP	83	352	0
TAP	84	0	1
TAP	84	0	5
TAP	84	64	6
TAP	84	96	3
TAP	84	96	7
TAP	84	160	2
TAP	84	192	1
TAP	84	192	4
TAP	84	256	5
TAP	84	288	2
TAP	84	288	6
TAP	84	352	1
TAP	85	0	0
TAP	85	0	6
TAP	85	64	7
TAP	85	96	0
TAP	85	96	2
TAP	85	160	1
TAP	85	192	0
TAP	85	192	5
TAP	85	256	7
TAP	85	288	0
TAP	85	288	3
TAP	85	352	1
TAP	86	0	2
TAP	86	0	7
TAP	86	64	6
TAP	86	96	2
TAP	86	96	5
TAP	86	160	2
TAP	86	192	3
TAP	86	192	5
TAP	86	256	5
TAP	86	288	2
TAP	86	288	4
TAP	86	352	2
TAP	87	0	4
TAP	87	64	4
TAP	87	96	3
TAP	87	160	3
STR	87	192	1
SI_	87	192	1	96	48	4
STR	87	192	6
SI_	87	192	6	96	48	3
TAP	88	0	3
TAP	88	0	4
STR	88	96	3
SI_	88	96	3	96	48	0
STR	88	96	4
SI_	88	96	4	96	48	7
TAP	88	288	4
TAP	88	288	5
BRK	89	0	2
BRK	89	0	7

T_REC_TAP	455
T_REC_BRK	7
T_REC_XTP	0
T_REC_HLD	16
T_REC_XHO	0
T_REC_STR	104
T_REC_BST	4
T_REC_XST	0
T_REC_TTP	0
T_REC_THO	0
T_REC_SLD	111
T_REC_ALL	697
T_NUM_TAP	559
T_NUM_BRK	11
T_NUM_HLD	16
T_NUM_SLD	111
T_NUM_ALL	697
T_JUDGE_TAP	570
T_JUDGE_HLD	32
T_JUDGE_SLD	111
T_JUDGE_ALL	713
TTM_EACHPAIRS	143
TTM_SCR_TAP	279500
TTM_SCR_BRK	28600
TTM_SCR_HLD	16000
TTM_SCR_SLD	166500
TTM_SCR_ALL	490600
TTM_SCR_S	474850
TTM_SCR_SS	489500
TTM_RAT_ACV	10022

