VERSION	0.00.00	1.03.00
FES_MODE	0
BPM_DEF	169.300	169.300	169.300	169.300
MET_DEF	4	4
RESOLUTION	384
CLK_DEF	384
COMPATIBLE_CODE	MA2

BPM	0	0	169.300

HLD	1	0	4	64
TAP	1	160	3
HLD	1	192	4	64
TAP	1	256	3
TAP	1	352	3
HLD	2	0	4	64
TAP	2	64	3
HLD	2	96	4	64
TAP	2	160	3
HLD	2	192	4	64
TAP	2	256	3
TAP	2	288	4
HLD	3	0	4	64
TAP	3	160	3
HLD	3	192	4	64
TAP	3	256	3
TAP	3	352	3
HLD	4	0	4	64
TAP	4	64	3
HLD	4	96	4	64
TAP	4	160	3
HLD	4	192	4	64
TAP	4	256	3
TAP	4	288	4
TAP	5	0	3
STR	5	0	6
SCR	5	0	6	96	48	0
TAP	5	96	3
STR	5	192	2
SCR	5	192	2	96	48	4
TAP	5	192	7
TAP	5	288	7
TAP	6	0	3
STR	6	0	6
SCR	6	0	6	96	48	0
TAP	6	96	3
TAP	6	192	2
TAP	6	192	7
TAP	6	288	2
TAP	6	288	7
STR	7	0	1
SCL	7	0	1	96	48	7
TAP	7	0	4
TAP	7	96	4
TAP	7	192	0
STR	7	192	5
SCL	7	192	5	96	48	3
TAP	7	288	0
STR	8	0	1
SCL	8	0	1	96	48	7
TAP	8	0	4
TAP	8	96	4
TAP	8	192	0
TAP	8	192	5
HLD	9	0	3	64
TAP	9	160	4
HLD	9	192	3	64
TAP	9	256	4
TAP	9	352	4
HLD	10	0	3	64
TAP	10	64	4
HLD	10	96	3	64
TAP	10	160	4
TAP	10	192	3
TAP	10	288	3
TAP	10	288	4
STR	11	0	2
SI_	11	0	2	96	48	4
TAP	11	0	5
STR	11	96	6
SI_	11	96	6	96	48	0
STR	11	192	2
SI_	11	192	2	96	48	4
STR	11	288	6
SI_	11	288	6	96	48	0
STR	12	0	2
SI_	12	0	2	96	48	4
STR	12	96	6
SI_	12	96	6	96	48	0
TAP	12	192	2
TAP	12	256	2
TAP	12	288	3
TAP	12	352	3
STR	13	0	1
SI_	13	0	1	96	48	7
STR	13	96	5
SI_	13	96	5	96	48	3
STR	13	192	1
SI_	13	192	1	96	48	7
STR	13	288	5
SI_	13	288	5	96	48	3
STR	14	0	1
SI_	14	0	1	96	48	7
TAP	14	96	5
TAP	14	192	3
TAP	14	192	6
TAP	15	0	2
STR	15	0	5
SI_	15	0	5	96	48	3
STR	15	96	1
SI_	15	96	1	96	48	7
STR	15	192	5
SI_	15	192	5	96	48	3
STR	15	288	1
SI_	15	288	1	96	48	7
STR	16	0	5
SI_	16	0	5	96	48	3
STR	16	96	1
SI_	16	96	1	96	48	7
TAP	16	192	5
TAP	16	256	5
TAP	16	288	4
TAP	16	352	4
STR	17	0	6
SI_	17	0	6	96	48	0
STR	17	96	2
SI_	17	96	2	96	48	4
STR	17	192	6
SI_	17	192	6	96	48	0
STR	17	288	2
SI_	17	288	2	96	48	4
STR	18	0	6
SI_	18	0	6	96	48	0
TAP	18	96	2
TAP	18	192	1
TAP	18	192	4
TAP	19	0	4
TAP	19	64	4
TAP	19	96	3
TAP	19	160	3
TAP	19	192	5
TAP	19	288	2
TAP	19	288	5
TAP	20	0	3
TAP	20	0	4
TAP	20	96	3
TAP	20	96	4
TAP	20	192	2
TAP	20	192	5
BRK	20	288	0
TAP	21	0	5
TAP	21	64	5
TAP	21	96	3
TAP	21	160	3
TAP	21	192	4
TAP	21	256	4
TAP	21	288	2
TAP	21	352	2
TAP	22	0	6
TAP	22	64	6
TAP	22	96	4
TAP	22	160	4
TAP	22	192	5
TAP	22	256	5
TAP	22	288	3
TAP	22	352	3
TAP	23	0	4
TAP	23	64	4
TAP	23	96	2
TAP	23	160	2
TAP	23	192	3
TAP	23	256	3
STR	23	288	1
SUR	23	288	1	96	96	6
TAP	24	0	7
TAP	24	96	7
TAP	24	192	0
TAP	24	192	7
TAP	25	0	2
TAP	25	64	2
TAP	25	96	4
TAP	25	160	4
TAP	25	192	3
TAP	25	256	3
TAP	25	288	5
TAP	25	352	5
TAP	26	0	1
TAP	26	64	1
TAP	26	96	3
TAP	26	160	3
TAP	26	192	2
TAP	26	256	2
TAP	26	288	4
TAP	26	352	4
TAP	27	0	3
TAP	27	64	3
TAP	27	96	5
TAP	27	160	5
TAP	27	192	4
TAP	27	256	4
TAP	27	288	6
STR	28	0	0
SI_	28	0	0	96	48	4
STR	28	0	7
SI_	28	0	7	96	48	3
TAP	28	192	1
TAP	28	192	6
HLD	29	0	4	96
HLD	29	0	5	96
HLD	29	192	2	96
HLD	29	192	3	96
HLD	30	0	3	64
HLD	30	0	5	64
HLD	30	96	2	64
HLD	30	96	4	64
TAP	30	192	1
TAP	30	192	5
TAP	31	0	1
TAP	31	64	1
TAP	31	96	7
TAP	31	160	7
TAP	31	192	0
TAP	31	256	0
TAP	31	288	6
TAP	31	352	6
TAP	32	0	2
TAP	32	64	2
TAP	32	96	0
TAP	32	160	0
TAP	32	192	1
TAP	32	256	1
TAP	32	288	7
TAP	32	352	7
TAP	33	0	0
TAP	33	64	0
TAP	33	96	6
TAP	33	160	6
TAP	33	192	7
TAP	33	256	7
STR	33	288	5
SCL	33	288	5	96	96	2
TAP	34	0	0
TAP	34	96	0
TAP	34	192	0
TAP	34	192	7
TAP	35	0	6
TAP	35	64	6
TAP	35	96	0
TAP	35	160	0
TAP	35	192	7
TAP	35	256	7
TAP	35	288	1
TAP	35	352	1
TAP	36	0	5
TAP	36	64	5
TAP	36	96	7
TAP	36	160	7
TAP	36	192	6
TAP	36	256	6
TAP	36	288	0
TAP	36	352	0
TAP	37	0	7
TAP	37	64	7
TAP	37	96	1
TAP	37	160	1
TAP	37	192	0
TAP	37	256	0
TAP	37	288	2
STR	38	0	3
SI_	38	0	3	96	32	7
STR	38	0	4
SI_	38	0	4	96	32	0
TAP	38	192	2
TAP	38	192	5
STR	39	0	5
SCL	39	0	5	96	96	2
STR	39	192	1
SCL	39	192	1	96	96	6
STR	40	0	5
SCL	40	0	5	96	96	2
STR	40	192	1
SCL	40	192	1	96	96	6
HLD	41	0	5	96
HLD	41	96	7	96
HLD	41	192	0	96
STR	41	288	2
SXR	41	288	2	96	288	5
HLD	42	0	4	288
STR	43	0	2
SCR	43	0	2	96	96	5
STR	43	192	6
SCR	43	192	6	96	96	1
STR	44	0	2
SCR	44	0	2	96	96	5
STR	44	192	6
SCR	44	192	6	96	96	1
HLD	45	0	2	96
HLD	45	96	0	96
HLD	45	192	7	96
HLD	45	288	5	96
TAP	46	0	2
TAP	46	96	3
TAP	46	96	4
TAP	46	192	1
TAP	46	192	6
TAP	47	0	1
TAP	47	0	6
TAP	47	64	1
TAP	47	96	3
TAP	47	160	0
TAP	47	192	7
TAP	47	256	6
TAP	47	288	4
TAP	47	352	7
TAP	48	0	0
TAP	48	64	1
TAP	48	96	3
TAP	48	160	0
TAP	48	192	7
TAP	48	256	6
TAP	48	288	4
TAP	48	352	7
STR	49	0	1
SI_	49	0	1	96	48	3
STR	49	96	6
SI_	49	96	6	96	48	4
STR	49	192	0
SCR	49	192	0	96	48	2
STR	49	288	7
SCL	49	288	7	96	48	5
STR	50	0	0
SI_	50	0	0	96	48	4
STR	50	96	7
SI_	50	96	7	96	48	3
TAP	50	192	0
TAP	50	288	0
TAP	50	288	7
TAP	51	0	1
TAP	51	0	6
TAP	51	64	6
TAP	51	96	4
TAP	51	160	7
TAP	51	192	0
TAP	51	256	1
TAP	51	288	3
TAP	51	352	0
TAP	52	0	7
TAP	52	64	6
TAP	52	96	4
TAP	52	160	7
TAP	52	192	0
TAP	52	256	1
TAP	52	288	3
TAP	52	352	0
STR	53	0	6
SI_	53	0	6	96	48	4
STR	53	96	1
SI_	53	96	1	96	48	3
STR	53	192	7
SCL	53	192	7	96	48	5
STR	53	288	0
SCR	53	288	0	96	48	2
STR	54	0	7
SI_	54	0	7	96	48	3
TAP	54	96	0
TAP	54	192	1
TAP	54	192	6
TAP	55	0	2
TAP	55	0	5
TAP	55	64	5
TAP	55	96	7
TAP	55	160	4
TAP	55	192	3
TAP	55	256	2
TAP	55	288	0
TAP	55	352	3
TAP	56	0	4
TAP	56	64	5
TAP	56	96	7
TAP	56	160	4
TAP	56	192	3
TAP	56	256	2
TAP	56	288	0
TAP	56	352	3
STR	57	0	5
SXL	57	0	5	96	192	1
TAP	57	96	3
TAP	57	192	3
TAP	57	288	3
TAP	58	0	0
TAP	58	0	7
STR	58	96	0
SV_	58	96	0	96	96	2
STR	58	96	7
SV_	58	96	7	96	96	5
TAP	59	0	2
TAP	59	0	5
TAP	59	64	2
TAP	59	96	0
TAP	59	160	3
TAP	59	192	4
TAP	59	256	5
TAP	59	288	7
TAP	59	352	4
TAP	60	0	3
TAP	60	64	2
TAP	60	96	0
TAP	60	160	3
TAP	60	192	4
TAP	60	256	5
TAP	60	288	7
TAP	60	352	4
STR	61	0	2
SI_	61	0	2	96	48	0
STR	61	96	5
SI_	61	96	5	96	48	7
STR	61	192	3
SCL	61	192	3	96	48	1
STR	61	288	4
SCR	61	288	4	96	48	6
STR	62	0	3
SI_	62	0	3	96	48	0
TAP	62	96	4
TAP	62	192	1
TAP	62	192	6
HLD	63	0	0	96
HLD	63	96	1	96
HLD	63	192	2	96
STR	63	288	3
SI_	63	288	3	96	48	0
STR	64	96	0
SCL	64	96	0	96	96	5
SCR	64	96	0	96	96	3
HLD	65	0	4	96
HLD	65	96	5	96
HLD	65	192	6	96
STR	65	288	7
SUL	65	288	7	96	192	0
TAP	66	192	7
TAP	66	288	7
STR	67	0	0
SI_	67	0	0	96	96	3
STR	67	192	7
SI_	67	192	7	96	96	4
STR	68	0	3
SI_	68	0	3	96	96	0
STR	68	192	4
SI_	68	192	4	96	96	7
TAP	69	0	0
TAP	69	96	1
TAP	69	192	2
TAP	69	288	3
HLD	70	0	2	64
HLD	70	0	4	64
HLD	70	96	1	64
HLD	70	96	5	64
TAP	70	192	0
TAP	70	192	6
TAP	71	0	7
TAP	71	64	7
TAP	71	96	0
TAP	71	160	0
TAP	71	192	1
TAP	71	256	1
TAP	71	288	2
TAP	71	352	2
TAP	72	0	3
TAP	72	64	3
TAP	72	96	4
TAP	72	160	4
TAP	72	192	5
TAP	72	256	5
TAP	72	288	6
TAP	72	352	6
TAP	73	0	5
TAP	73	64	5
TAP	73	96	4
TAP	73	160	4
TAP	73	192	3
TAP	73	256	3
TAP	73	288	2
TAP	73	352	2
TAP	74	0	1
TAP	74	64	1
TAP	74	96	0
TAP	74	160	0
TAP	74	192	7
TAP	74	256	7
TAP	74	288	0
TAP	74	288	7
TAP	75	0	0
TAP	75	64	0
TAP	75	96	7
TAP	75	160	7
TAP	75	192	6
TAP	75	256	6
TAP	75	288	5
TAP	75	352	5
TAP	76	0	4
TAP	76	64	4
TAP	76	96	3
TAP	76	160	3
TAP	76	192	2
TAP	76	256	2
TAP	76	288	1
TAP	76	352	1
TAP	77	0	2
TAP	77	64	2
TAP	77	96	3
TAP	77	160	3
TAP	77	192	4
TAP	77	256	4
TAP	77	288	5
TAP	77	352	5
TAP	78	0	6
TAP	78	64	6
TAP	78	96	7
TAP	78	160	7
TAP	78	192	0
TAP	78	256	0
TAP	78	288	0
TAP	78	288	7
TAP	79	0	1
TAP	79	64	1
TAP	79	96	3
TAP	79	160	3
TAP	79	192	4
TAP	79	256	4
TAP	79	288	6
TAP	79	352	6
TAP	80	0	1
TAP	80	64	1
TAP	80	96	3
TAP	80	160	3
TAP	80	192	4
TAP	80	256	4
TAP	80	288	6
TAP	80	352	6
TAP	81	0	4
TAP	81	64	4
TAP	81	96	3
TAP	81	160	3
TAP	81	192	1
TAP	81	256	1
TAP	81	288	6
TAP	81	352	6
TAP	82	0	4
TAP	82	64	4
TAP	82	96	3
TAP	82	160	3
TAP	82	192	1
TAP	82	256	1
TAP	82	288	1
TAP	82	288	6
TAP	83	0	2
TAP	83	64	2
TAP	83	96	0
TAP	83	160	0
TAP	83	192	7
TAP	83	256	7
TAP	83	288	5
TAP	83	352	5
TAP	84	0	2
TAP	84	64	2
TAP	84	96	0
TAP	84	160	0
TAP	84	192	7
TAP	84	256	7
TAP	84	288	5
TAP	84	352	5
TAP	85	0	7
TAP	85	64	7
TAP	85	96	0
TAP	85	160	0
TAP	85	192	2
TAP	85	256	2
TAP	85	288	5
TAP	85	352	5
TAP	86	0	7
TAP	86	64	7
TAP	86	96	0
TAP	86	160	0
TAP	86	192	2
TAP	86	256	2
TAP	86	288	2
TAP	86	288	5
TAP	87	0	0
TAP	87	96	1
TAP	87	192	2
STR	87	288	3
SI_	87	288	3	96	32	0
STR	88	0	4
SI_	88	0	4	96	32	7
STR	88	96	0
SCR	88	96	0	96	192	7
TAP	88	192	7
BRK	89	0	0

T_REC_TAP	400
T_REC_BRK	2
T_REC_XTP	0
T_REC_HLD	40
T_REC_XHO	0
T_REC_STR	72
T_REC_BST	0
T_REC_XST	0
T_REC_TTP	0
T_REC_THO	0
T_REC_SLD	73
T_REC_ALL	587
T_NUM_TAP	472
T_NUM_BRK	2
T_NUM_HLD	40
T_NUM_SLD	73
T_NUM_ALL	587
T_JUDGE_TAP	474
T_JUDGE_HLD	84
T_JUDGE_SLD	73
T_JUDGE_ALL	631
TTM_EACHPAIRS	47
TTM_SCR_TAP	236000
TTM_SCR_BRK	5200
TTM_SCR_HLD	40000
TTM_SCR_SLD	109500
TTM_SCR_ALL	390700
TTM_SCR_S	378800
TTM_SCR_SS	390500
TTM_RAT_ACV	10005

