VERSION	0.00.00	1.03.00
FES_MODE	0
BPM_DEF	169.300	169.300	169.300	169.300
MET_DEF	4	4
RESOLUTION	384
CLK_DEF	384
COMPATIBLE_CODE	MA2

BPM	0	0	169.300

HLD	5	0	2	288
TAP	5	0	3
TAP	5	192	4
TAP	5	288	3
TAP	6	0	4
HLD	6	0	5	288
TAP	6	192	3
TAP	6	288	4
HLD	7	0	2	288
TAP	7	0	3
TAP	7	192	5
TAP	7	288	3
HLD	8	0	4	96
HLD	8	0	5	96
TAP	8	192	3
TAP	8	192	6
HLD	9	0	3	384
HLD	9	192	4	288
TAP	10	192	2
TAP	10	192	5
TAP	11	0	2
TAP	11	96	2
TAP	11	96	3
TAP	11	192	5
TAP	11	288	4
TAP	11	288	5
TAP	12	0	2
TAP	12	96	1
TAP	12	96	3
TAP	12	192	4
TAP	12	288	3
TAP	12	288	5
TAP	13	0	5
TAP	13	96	4
TAP	13	96	5
TAP	13	192	2
TAP	13	288	2
TAP	13	288	3
TAP	14	0	5
TAP	14	96	4
TAP	14	96	6
TAP	14	192	3
TAP	14	192	7
TAP	15	0	2
TAP	15	96	1
TAP	15	96	3
TAP	15	192	5
TAP	15	288	4
TAP	15	288	6
TAP	16	0	2
TAP	16	96	1
TAP	16	96	3
TAP	16	192	2
TAP	16	192	4
TAP	16	288	3
TAP	16	288	6
TAP	17	0	4
TAP	17	0	5
TAP	17	96	6
TAP	17	192	2
TAP	17	192	3
TAP	17	288	1
TAP	18	0	4
TAP	18	0	5
TAP	18	96	3
TAP	18	96	6
TAP	18	192	2
TAP	18	192	7
HLD	19	0	3	96
TAP	19	96	4
TAP	19	192	3
HLD	19	192	4	192
TAP	20	0	3
TAP	20	96	2
TAP	20	96	4
TAP	20	192	1
TAP	20	192	5
HLD	21	0	2	96
TAP	21	0	3
TAP	21	96	3
HLD	21	192	3	96
TAP	21	192	4
TAP	21	288	4
HLD	22	0	4	96
TAP	22	0	5
TAP	22	96	6
TAP	22	192	2
HLD	22	192	3	96
TAP	22	288	1
TAP	23	0	3
TAP	23	96	2
TAP	23	96	4
TAP	23	192	4
TAP	23	288	3
HLD	23	288	5	96
TAP	24	0	1
TAP	24	96	2
TAP	24	96	6
TAP	24	192	1
TAP	24	192	5
TAP	25	0	4
HLD	25	0	5	96
TAP	25	96	2
TAP	25	192	4
HLD	25	192	5	96
TAP	25	288	1
HLD	26	0	2	96
TAP	26	0	3
TAP	26	96	5
HLD	26	192	2	96
TAP	26	192	3
TAP	26	288	6
TAP	27	0	4
STR	27	0	5
SCR	27	0	5	96	96	0
TAP	27	288	1
TAP	27	288	3
TAP	28	0	3
TAP	28	0	4
TAP	28	96	4
TAP	28	96	6
TAP	28	192	0
TAP	28	192	5
STR	29	0	1
SI_	29	0	1	96	96	5
STR	29	0	7
SI_	29	0	7	96	96	3
TAP	29	288	2
TAP	29	288	6
TAP	30	0	1
TAP	30	0	5
TAP	30	96	2
TAP	30	96	6
BRK	30	192	1
BRK	30	192	5
HLD	31	0	1	96
TAP	31	0	3
TAP	31	96	3
TAP	31	192	4
HLD	31	192	6	96
TAP	31	288	4
TAP	32	0	3
TAP	32	0	5
STR	32	96	2
SCL	32	96	2	96	96	7
TAP	32	96	4
TAP	33	0	5
TAP	33	96	4
TAP	33	96	6
TAP	33	192	2
TAP	33	288	1
STR	33	288	3
SCR	33	288	3	96	144	7
TAP	34	192	0
TAP	34	192	1
TAP	35	0	4
HLD	35	0	6	96
TAP	35	96	4
HLD	35	192	1	96
TAP	35	192	3
TAP	35	288	3
TAP	36	0	2
TAP	36	0	4
TAP	36	96	3
TAP	36	96	5
TAP	36	192	1
TAP	36	192	4
TAP	36	288	3
HLD	36	288	6	96
TAP	37	0	7
TAP	37	96	0
TAP	37	96	7
TAP	37	192	0
TAP	37	192	1
TAP	37	288	0
TAP	37	288	7
STR	38	0	1
SI_	38	0	1	96	96	6
TAP	38	192	4
HLD	39	0	3	288
STR	39	0	5
SCR	39	0	5	96	192	0
STR	40	0	2
SCL	40	0	2	96	192	7
HLD	40	0	4	288
HLD	41	0	4	96
HLD	41	0	5	96
HLD	41	192	2	96
HLD	41	192	3	96
HLD	42	0	4	96
HLD	42	0	6	96
TAP	42	192	3
TAP	42	192	4
STR	43	0	6
SCL	43	0	6	96	192	3
HLD	43	0	7	288
HLD	44	0	0	288
STR	44	0	1
SCR	44	0	1	96	192	4
HLD	45	0	3	96
HLD	45	0	6	96
HLD	45	192	1	96
HLD	45	192	4	96
TAP	46	0	3
TAP	46	0	5
TAP	46	96	2
TAP	46	96	4
BRK	46	192	1
BRK	46	192	6
HLD	47	0	5	64
TAP	47	64	4
TAP	47	96	6
HLD	47	192	2	64
TAP	47	256	3
TAP	47	288	1
HLD	48	0	6	64
TAP	48	64	7
TAP	48	96	5
TAP	48	192	0
TAP	48	192	1
TAP	48	288	2
TAP	48	288	7
TAP	49	0	3
TAP	49	0	4
TAP	49	96	5
TAP	49	96	6
TAP	49	192	0
TAP	49	192	7
TAP	49	288	1
STR	49	288	2
SSL	49	288	2	96	192	6
TAP	50	288	0
TAP	50	288	5
HLD	51	0	2	64
TAP	51	64	3
TAP	51	96	1
HLD	51	192	5	64
TAP	51	256	4
TAP	51	288	6
HLD	52	0	1	64
TAP	52	64	0
TAP	52	96	2
TAP	52	192	6
TAP	52	192	7
TAP	52	288	0
TAP	52	288	5
HLD	53	0	2	96
TAP	53	0	3
HLD	53	96	0	96
HLD	53	192	1	96
HLD	53	288	3	96
TAP	54	0	2
TAP	54	96	4
TAP	54	96	5
BRK	54	192	3
BRK	54	192	6
HLD	55	0	2	64
TAP	55	64	3
TAP	55	96	1
TAP	55	160	1
HLD	55	192	5	64
TAP	55	256	4
TAP	55	288	6
TAP	55	352	6
HLD	56	0	2	64
TAP	56	64	3
TAP	56	96	1
TAP	56	160	1
TAP	56	192	5
TAP	56	288	3
TAP	56	288	7
TAP	57	0	0
HLD	57	0	6	96
TAP	57	96	4
HLD	57	192	1	96
TAP	57	192	7
STR	57	288	3
SCL	57	288	3	96	96	0
SCR	57	288	3	96	96	6
TAP	58	192	7
TAP	58	288	1
TAP	58	288	5
HLD	59	0	6	64
TAP	59	64	7
TAP	59	96	5
TAP	59	160	5
HLD	59	192	1	64
TAP	59	256	0
TAP	59	288	2
TAP	59	352	2
HLD	60	0	6	64
TAP	60	64	7
TAP	60	96	5
TAP	60	160	5
TAP	60	192	2
TAP	60	288	4
TAP	60	288	6
HLD	61	0	6	96
TAP	61	0	7
HLD	61	96	4	96
HLD	61	192	5	96
HLD	61	288	7	96
TAP	62	0	6
TAP	62	96	0
TAP	62	96	1
BRK	62	192	2
BRK	62	192	7
TAP	63	0	0
HLD	63	0	4	288
TAP	63	96	1
TAP	63	192	2
TAP	63	288	2
TAP	64	0	4
TAP	64	96	2
TAP	64	96	6
TAP	64	192	3
TAP	64	288	1
TAP	64	288	5
HLD	65	0	0	288
TAP	65	0	4
TAP	65	96	5
TAP	65	192	6
TAP	65	288	6
TAP	66	0	1
TAP	66	0	6
STR	66	96	3
SI_	66	96	3	96	96	0
STR	66	96	4
SI_	66	96	4	96	96	7
TAP	67	0	3
HLD	67	0	4	96
TAP	67	96	1
TAP	67	192	2
HLD	67	192	3	96
TAP	67	288	0
HLD	68	0	3	96
TAP	68	0	4
TAP	68	96	6
TAP	68	192	1
TAP	68	192	5
TAP	68	288	3
TAP	68	288	7
TAP	69	0	0
HLD	69	0	5	288
TAP	69	96	1
TAP	69	192	2
TAP	69	288	2
STR	70	0	3
SV_	70	0	3	96	96	0
STR	70	0	5
SV_	70	0	5	96	96	0
TAP	71	0	3
STR	71	0	4
SCR	71	0	4	96	192	7
TAP	71	192	0
TAP	71	288	0
STR	72	0	0
SCL	72	0	0	96	192	5
TAP	72	0	1
TAP	72	192	4
TAP	72	288	4
STR	73	0	3
SCL	73	0	3	96	192	0
TAP	73	0	4
TAP	73	192	7
TAP	73	288	7
TAP	74	0	4
TAP	74	0	6
TAP	74	96	3
TAP	74	96	5
TAP	74	192	2
TAP	74	192	4
TAP	74	288	0
STR	75	0	3
SCL	75	0	3	96	192	0
TAP	75	0	4
TAP	75	192	7
TAP	75	288	7
TAP	76	0	6
STR	76	0	7
SCR	76	0	7	96	192	2
TAP	76	192	3
TAP	76	288	3
TAP	77	0	3
STR	77	0	4
SCR	77	0	4	96	192	7
TAP	77	192	0
TAP	77	288	0
TAP	78	0	1
TAP	78	0	3
TAP	78	96	0
TAP	78	192	4
TAP	78	192	6
TAP	78	288	7
HLD	79	0	1	64
TAP	79	64	0
TAP	79	96	2
HLD	79	192	6	64
TAP	79	256	7
TAP	79	288	5
HLD	80	0	2	64
TAP	80	64	3
TAP	80	96	1
TAP	80	192	3
TAP	80	192	4
TAP	80	288	4
TAP	80	288	6
HLD	81	0	5	64
TAP	81	64	4
TAP	81	96	6
HLD	81	192	2	64
TAP	81	256	3
TAP	81	288	1
HLD	82	0	5	64
TAP	82	64	4
TAP	82	96	6
TAP	82	192	1
TAP	82	192	6
HLD	83	0	5	64
TAP	83	64	4
TAP	83	96	6
HLD	83	192	2	64
TAP	83	256	3
TAP	83	288	1
HLD	84	0	6	64
TAP	84	64	7
TAP	84	96	5
TAP	84	192	0
TAP	84	192	7
TAP	84	288	1
TAP	84	288	6
HLD	85	0	1	64
TAP	85	64	0
TAP	85	96	2
HLD	85	192	6	64
TAP	85	256	7
STR	85	288	5
SCL	85	288	5	96	192	0
TAP	86	288	6
TAP	86	288	7
TAP	87	0	0
HLD	87	0	6	288
TAP	87	96	1
TAP	87	192	2
TAP	87	288	2
TAP	88	0	1
TAP	88	0	7
TAP	88	96	0
TAP	88	96	6
TAP	88	192	2
TAP	88	192	7
STR	88	288	1
SI_	88	288	1	96	64	4
STR	88	288	6
SI_	88	288	6	96	64	3

T_REC_TAP	319
T_REC_BRK	8
T_REC_XTP	0
T_REC_HLD	77
T_REC_XHO	0
T_REC_STR	25
T_REC_BST	0
T_REC_XST	0
T_REC_TTP	0
T_REC_THO	0
T_REC_SLD	26
T_REC_ALL	455
T_NUM_TAP	344
T_NUM_BRK	8
T_NUM_HLD	77
T_NUM_SLD	26
T_NUM_ALL	455
T_JUDGE_TAP	352
T_JUDGE_HLD	210
T_JUDGE_SLD	26
T_JUDGE_ALL	588
TTM_EACHPAIRS	133
TTM_SCR_TAP	172000
TTM_SCR_BRK	20800
TTM_SCR_HLD	77000
TTM_SCR_SLD	39000
TTM_SCR_ALL	308800
TTM_SCR_S	298800
TTM_SCR_SS	308000
TTM_RAT_ACV	10025

