VERSION	0.00.00	1.03.00
FES_MODE	0
BPM_DEF	169.300	169.300	169.300	169.300
MET_DEF	4	4
RESOLUTION	384
CLK_DEF	384
COMPATIBLE_CODE	MA2

BPM	0	0	169.300

TAP	5	0	2
TAP	5	96	3
TAP	5	192	3
TAP	5	192	4
TAP	6	0	5
TAP	6	96	4
TAP	6	192	3
TAP	6	192	4
TAP	7	0	2
TAP	7	96	2
TAP	7	192	3
TAP	7	288	3
TAP	8	0	4
TAP	8	96	3
TAP	8	192	3
TAP	8	192	4
HLD	9	0	3	672
HLD	9	0	4	672
TAP	11	0	2
TAP	11	96	2
TAP	11	192	2
TAP	11	192	3
TAP	12	0	5
TAP	12	96	5
TAP	12	192	4
TAP	12	192	5
TAP	13	0	2
TAP	13	96	3
TAP	13	192	4
TAP	13	288	5
TAP	14	0	3
TAP	14	0	4
TAP	14	96	3
TAP	14	96	4
TAP	14	192	2
TAP	14	192	5
TAP	15	0	6
TAP	15	96	6
TAP	15	192	6
TAP	15	192	7
TAP	16	0	1
TAP	16	96	1
TAP	16	192	0
TAP	16	192	1
TAP	17	0	6
TAP	17	96	7
TAP	17	192	0
TAP	17	288	1
TAP	18	0	0
TAP	18	0	7
TAP	18	96	0
TAP	18	96	7
TAP	18	192	1
TAP	18	192	6
STR	19	0	7
SI_	19	0	7	96	192	4
TAP	20	0	3
TAP	20	96	4
TAP	20	192	3
TAP	20	192	4
HLD	21	0	2	192
TAP	21	192	3
TAP	22	0	2
TAP	22	96	3
TAP	22	192	2
TAP	22	192	3
HLD	23	0	5	192
TAP	23	192	4
TAP	24	0	5
TAP	24	96	4
TAP	24	192	4
TAP	24	192	5
HLD	25	0	2	192
TAP	25	192	3
TAP	26	0	2
TAP	26	96	3
TAP	26	192	2
TAP	26	192	3
HLD	27	0	5	192
TAP	27	192	4
TAP	28	0	4
TAP	28	96	3
TAP	28	192	2
TAP	28	192	5
TAP	29	0	1
TAP	29	96	1
TAP	29	192	0
TAP	29	288	0
TAP	30	0	7
TAP	30	96	7
BRK	30	192	6
BRK	30	192	7
TAP	31	0	6
TAP	31	96	7
TAP	31	192	6
TAP	31	288	7
TAP	32	0	0
TAP	32	96	1
TAP	32	192	0
TAP	32	192	1
TAP	33	0	1
TAP	33	96	0
TAP	33	192	1
TAP	33	288	0
TAP	34	0	7
TAP	34	96	6
TAP	34	192	6
TAP	34	192	7
TAP	35	0	6
TAP	35	96	7
TAP	35	192	6
TAP	35	288	7
TAP	36	0	0
TAP	36	96	1
TAP	36	192	0
TAP	36	192	1
TAP	37	0	1
TAP	37	96	0
TAP	37	192	7
TAP	37	288	6
TAP	38	0	7
TAP	38	96	0
TAP	38	192	0
TAP	38	192	7
HLD	39	0	1	384
HLD	40	0	2	384
HLD	41	0	3	384
TAP	42	0	4
TAP	42	192	3
TAP	42	192	4
HLD	43	0	5	384
HLD	44	0	6	384
HLD	45	0	7	384
TAP	46	0	0
TAP	46	96	7
TAP	46	192	0
TAP	46	192	7
TAP	47	0	0
TAP	47	0	1
TAP	47	96	0
TAP	47	96	1
TAP	47	192	2
TAP	47	192	7
TAP	47	288	0
TAP	47	288	1
TAP	48	0	6
TAP	48	0	7
TAP	48	96	6
TAP	48	96	7
TAP	48	192	0
TAP	48	192	5
TAP	48	288	6
TAP	48	288	7
TAP	49	0	5
TAP	49	96	4
TAP	49	192	3
TAP	49	288	2
TAP	50	0	1
TAP	50	96	0
TAP	50	192	0
TAP	50	192	1
TAP	51	0	6
TAP	51	0	7
TAP	51	96	6
TAP	51	96	7
TAP	51	192	0
TAP	51	192	5
TAP	51	288	6
TAP	51	288	7
TAP	52	0	0
TAP	52	0	1
TAP	52	96	0
TAP	52	96	1
TAP	52	192	2
TAP	52	192	7
TAP	52	288	0
TAP	52	288	1
TAP	53	0	2
TAP	53	96	3
TAP	53	192	4
TAP	53	288	5
TAP	54	0	6
TAP	54	96	7
TAP	54	192	6
TAP	54	192	7
TAP	55	0	4
TAP	55	0	5
TAP	55	96	4
TAP	55	96	5
TAP	55	192	3
TAP	55	192	6
TAP	55	288	4
TAP	55	288	5
TAP	56	0	2
TAP	56	0	3
TAP	56	96	2
TAP	56	96	3
TAP	56	192	1
TAP	56	192	4
TAP	56	288	2
TAP	56	288	3
TAP	57	0	1
TAP	57	96	0
TAP	57	192	7
TAP	57	288	6
TAP	58	0	5
TAP	58	96	4
TAP	58	192	4
TAP	58	192	5
TAP	59	0	2
TAP	59	0	3
TAP	59	96	2
TAP	59	96	3
TAP	59	192	1
TAP	59	192	4
TAP	59	288	2
TAP	59	288	3
TAP	60	0	4
TAP	60	0	5
TAP	60	96	4
TAP	60	96	5
TAP	60	192	3
TAP	60	192	6
TAP	60	288	4
TAP	60	288	5
TAP	61	0	6
TAP	61	96	7
TAP	61	192	0
TAP	61	288	1
TAP	62	0	2
TAP	62	96	3
TAP	62	192	2
TAP	62	192	3
HLD	63	0	5	192
TAP	63	192	4
TAP	64	0	3
TAP	64	0	4
TAP	64	96	3
TAP	64	96	4
TAP	64	192	2
TAP	64	192	5
HLD	65	0	1	192
TAP	65	192	0
TAP	66	0	0
TAP	66	0	7
TAP	66	96	0
TAP	66	96	7
TAP	66	192	1
TAP	66	192	6
HLD	67	0	2	192
TAP	67	192	3
HLD	68	0	5	192
TAP	68	192	4
HLD	69	0	6	192
TAP	69	192	7
TAP	70	0	0
TAP	70	0	7
TAP	70	96	0
TAP	70	96	7
TAP	70	192	1
TAP	70	192	6
TAP	71	0	2
TAP	71	96	2
TAP	71	192	2
TAP	71	192	3
TAP	72	0	5
TAP	72	96	5
TAP	72	192	4
TAP	72	192	5
TAP	73	0	2
TAP	73	96	3
TAP	73	192	4
TAP	73	288	5
TAP	74	0	3
TAP	74	0	4
TAP	74	96	3
TAP	74	96	4
TAP	74	192	2
TAP	74	192	5
TAP	75	0	6
TAP	75	96	6
TAP	75	192	6
TAP	75	192	7
TAP	76	0	1
TAP	76	96	1
TAP	76	192	0
TAP	76	192	1
TAP	77	0	6
TAP	77	96	7
TAP	77	192	0
TAP	77	288	1
TAP	78	0	0
TAP	78	0	7
TAP	78	96	0
TAP	78	96	7
TAP	78	192	1
TAP	78	192	6
TAP	79	0	2
TAP	79	96	2
TAP	79	192	1
TAP	79	192	3
TAP	80	0	5
TAP	80	96	5
TAP	80	192	4
TAP	80	192	6
TAP	81	0	2
TAP	81	96	3
TAP	81	192	5
TAP	81	288	4
TAP	82	0	3
TAP	82	0	4
TAP	82	96	3
TAP	82	96	4
TAP	82	192	2
TAP	82	192	5
TAP	83	0	6
TAP	83	96	6
TAP	83	192	5
TAP	83	192	7
TAP	84	0	1
TAP	84	96	1
TAP	84	192	0
TAP	84	192	2
TAP	85	0	6
TAP	85	96	7
TAP	85	192	0
TAP	85	288	1
TAP	86	0	0
TAP	86	0	7
TAP	86	96	0
TAP	86	96	7
TAP	86	192	1
TAP	86	192	6
STR	87	0	0
SI_	87	0	0	96	192	3
TAP	88	0	4
TAP	88	96	3
TAP	88	192	3
TAP	88	192	4
BRK	89	0	2
BRK	89	0	5

T_REC_TAP	316
T_REC_BRK	4
T_REC_XTP	0
T_REC_HLD	17
T_REC_XHO	0
T_REC_STR	2
T_REC_BST	0
T_REC_XST	0
T_REC_TTP	0
T_REC_THO	0
T_REC_SLD	2
T_REC_ALL	341
T_NUM_TAP	318
T_NUM_BRK	4
T_NUM_HLD	17
T_NUM_SLD	2
T_NUM_ALL	341
T_JUDGE_TAP	322
T_JUDGE_HLD	112
T_JUDGE_SLD	2
T_JUDGE_ALL	436
TTM_EACHPAIRS	93
TTM_SCR_TAP	159000
TTM_SCR_BRK	10400
TTM_SCR_HLD	17000
TTM_SCR_SLD	3000
TTM_SCR_ALL	189400
TTM_SCR_S	183350
TTM_SCR_SS	189000
TTM_RAT_ACV	10021

