VERSION	0.00.00	1.03.00
FES_MODE	0
BPM_DEF	169.300	169.300	169.300	169.300
MET_DEF	4	4
RESOLUTION	384
CLK_DEF	384
COMPATIBLE_CODE	MA2

BPM	0	0	169.300

TAP	5	0	0
TAP	5	192	0
TAP	6	0	1
TAP	6	192	1
TAP	7	0	2
TAP	7	192	2
TAP	8	0	3
TAP	8	192	3
TAP	8	192	4
STR	9	0	4
SI_	9	0	4	96	288	7
TAP	11	0	0
TAP	11	96	0
TAP	11	192	0
TAP	12	0	1
TAP	12	96	1
TAP	12	192	1
TAP	13	0	2
TAP	13	96	2
TAP	13	192	2
TAP	14	0	3
TAP	14	96	3
TAP	14	192	3
TAP	14	192	4
TAP	15	0	4
TAP	15	96	4
TAP	15	192	4
TAP	16	0	5
TAP	16	96	5
TAP	16	192	5
TAP	17	0	6
TAP	17	96	6
TAP	17	192	6
TAP	18	0	7
TAP	18	96	7
TAP	18	192	0
TAP	18	192	7
STR	19	0	0
SI_	19	0	0	96	288	3
TAP	21	0	3
TAP	21	192	3
TAP	22	0	2
TAP	22	96	2
TAP	22	192	2
TAP	23	0	1
TAP	23	192	1
TAP	24	0	0
TAP	24	96	0
TAP	24	192	0
TAP	25	0	7
TAP	25	192	7
TAP	26	0	6
TAP	26	96	6
TAP	26	192	6
TAP	27	0	5
TAP	27	192	5
TAP	28	0	4
TAP	28	96	4
TAP	28	192	3
TAP	28	192	4
HLD	29	0	3	576
HLD	29	0	4	576
TAP	31	0	2
TAP	31	192	2
TAP	31	192	3
TAP	32	0	4
TAP	32	96	4
TAP	32	192	4
TAP	33	0	5
TAP	33	192	4
TAP	33	192	5
TAP	34	0	3
TAP	34	96	3
TAP	34	192	2
TAP	34	192	3
TAP	35	0	1
TAP	35	192	0
TAP	35	192	1
TAP	36	0	7
TAP	36	96	7
TAP	36	192	7
TAP	37	0	6
TAP	37	192	6
TAP	37	192	7
TAP	38	0	0
TAP	38	96	0
TAP	38	192	0
TAP	38	192	1
STR	39	0	0
SI_	39	0	0	96	288	3
STR	41	0	4
SI_	41	0	4	96	288	7
STR	43	0	6
SI_	43	0	6	96	288	1
STR	45	0	2
SI_	45	0	2	96	288	5
BRK	47	0	5
TAP	47	96	5
TAP	47	192	4
TAP	47	192	5
TAP	48	0	4
TAP	48	96	4
TAP	48	192	3
TAP	48	192	4
TAP	49	0	3
TAP	49	96	3
TAP	49	192	2
TAP	49	192	3
TAP	50	0	2
TAP	50	0	3
TAP	50	192	3
TAP	50	192	4
TAP	51	0	2
TAP	51	96	2
TAP	51	192	2
TAP	51	192	3
TAP	52	0	3
TAP	52	96	3
TAP	52	192	3
TAP	52	192	4
TAP	53	0	4
TAP	53	96	4
TAP	53	192	4
TAP	53	192	5
TAP	54	0	3
TAP	54	0	4
TAP	54	192	4
TAP	54	192	5
TAP	55	0	6
TAP	55	96	6
TAP	55	192	6
TAP	55	192	7
TAP	56	0	7
TAP	56	96	7
TAP	56	192	0
TAP	56	192	7
TAP	57	0	0
TAP	57	96	0
TAP	57	192	0
TAP	57	192	1
TAP	58	0	0
TAP	58	0	1
TAP	58	192	0
TAP	58	192	7
TAP	59	0	1
TAP	59	96	1
TAP	59	192	0
TAP	59	192	1
TAP	60	0	0
TAP	60	96	0
TAP	60	192	0
TAP	60	192	7
TAP	61	0	7
TAP	61	96	7
TAP	61	192	6
TAP	61	192	7
TAP	62	0	0
TAP	62	0	7
TAP	62	192	6
TAP	62	192	7
HLD	63	0	0	384
HLD	63	0	7	384
HLD	65	0	1	384
HLD	65	0	6	384
HLD	67	0	2	384
HLD	67	0	5	384
HLD	69	0	3	384
HLD	69	0	4	384
STR	71	0	4
SI_	71	0	4	96	288	0
HLD	73	0	0	384
STR	75	0	7
SI_	75	0	7	96	288	3
HLD	77	0	3	384
TAP	79	0	4
TAP	79	96	4
TAP	79	192	4
TAP	80	0	5
TAP	80	96	5
TAP	80	192	5
TAP	81	0	6
TAP	81	96	6
TAP	81	192	6
TAP	82	0	7
TAP	82	96	7
TAP	82	192	0
TAP	82	192	7
TAP	83	0	0
TAP	83	96	0
TAP	83	192	0
TAP	84	0	1
TAP	84	96	1
TAP	84	192	1
TAP	85	0	2
TAP	85	96	2
TAP	85	192	2
TAP	86	0	3
TAP	86	96	4
TAP	86	192	3
TAP	86	192	4
HLD	87	0	3	576
HLD	87	0	4	576
BRK	89	0	3
BRK	89	0	4

T_REC_TAP	171
T_REC_BRK	3
T_REC_XTP	0
T_REC_HLD	14
T_REC_XHO	0
T_REC_STR	8
T_REC_BST	0
T_REC_XST	0
T_REC_TTP	0
T_REC_THO	0
T_REC_SLD	8
T_REC_ALL	204
T_NUM_TAP	179
T_NUM_BRK	3
T_NUM_HLD	14
T_NUM_SLD	8
T_NUM_ALL	204
T_JUDGE_TAP	182
T_JUDGE_HLD	128
T_JUDGE_SLD	8
T_JUDGE_ALL	318
TTM_EACHPAIRS	39
TTM_SCR_TAP	89500
TTM_SCR_BRK	7800
TTM_SCR_HLD	14000
TTM_SCR_SLD	12000
TTM_SCR_ALL	123300
TTM_SCR_S	119350
TTM_SCR_SS	123000
TTM_RAT_ACV	10024

