VERSION	0.00.00	1.03.00
FES_MODE	0
BPM_DEF	175.000	175.000	175.000	175.000
MET_DEF	4	4
RESOLUTION	384
CLK_DEF	384
COMPATIBLE_CODE	MA2

BPM	0	0	175.000

STR	1	0	3
SCL	1	0	3	96	1056	4
HLD	1	0	4	192
TAP	2	0	3
TAP	2	192	3
TAP	3	0	2
STR	4	0	3
SUL	4	0	3	96	192	4
TAP	5	0	2
HLD	5	0	3	144
TAP	5	144	2
TAP	5	192	2
TAP	5	192	3
TAP	5	336	3
HLD	5	336	4	96
TAP	6	48	3
TAP	6	144	4
TAP	6	192	4
TAP	6	192	5
HLD	7	0	4	144
TAP	7	0	5
TAP	7	144	5
TAP	7	192	4
TAP	7	192	5
HLD	7	336	3	96
TAP	7	336	4
TAP	8	48	4
TAP	8	144	3
STR	8	192	2
SI_	8	192	2	96	48	0
STR	8	192	3
SI_	8	192	3	96	48	5
TAP	9	0	1
HLD	9	0	3	96
TAP	9	96	2
TAP	9	192	3
TAP	9	192	4
TAP	9	288	3
TAP	9	288	5
HLD	10	0	4	96
TAP	10	0	6
TAP	10	96	5
TAP	10	192	3
TAP	10	192	4
TAP	10	288	2
TAP	10	288	4
TAP	11	0	1
HLD	11	0	3	96
TAP	11	96	2
TAP	11	192	3
TAP	11	192	4
TAP	11	288	4
TAP	11	288	6
TAP	12	0	5
TAP	12	0	7
TAP	12	96	0
TAP	12	96	2
BRK	12	192	1
BRK	12	192	6
HLD	13	0	5	96
TAP	13	96	4
TAP	13	144	4
HLD	13	192	5	96
TAP	13	288	7
STR	13	336	7
SXL	13	336	7	96	192	2
TAP	14	0	6
TAP	14	96	5
TAP	14	192	4
TAP	14	288	1
TAP	14	288	3
HLD	15	0	2	96
TAP	15	96	3
TAP	15	144	3
HLD	15	192	2	96
TAP	15	288	0
STR	15	336	0
SXR	15	336	0	96	192	5
TAP	16	0	1
TAP	16	96	2
TAP	16	192	3
TAP	16	288	4
TAP	16	288	6
HLD	17	0	5	96
TAP	17	96	4
TAP	17	144	4
HLD	17	192	5	96
TAP	17	288	7
STR	17	336	7
SXL	17	336	7	96	192	2
TAP	18	0	6
TAP	18	96	5
TAP	18	192	4
TAP	18	288	1
TAP	18	288	3
HLD	19	0	2	96
TAP	19	96	3
TAP	19	144	3
HLD	19	192	2	96
TAP	19	288	0
TAP	19	336	7
STR	20	0	1
SUL	20	0	1	96	96	4
STR	20	0	6
SUR	20	0	6	96	96	3
BRK	20	288	2
BRK	20	288	5
HLD	21	0	6	96
TAP	21	96	7
TAP	21	144	0
HLD	21	192	1	96
TAP	21	288	0
STR	21	336	0
SXR	21	336	0	96	192	5
TAP	22	0	1
TAP	22	96	2
TAP	22	192	3
TAP	22	288	4
TAP	22	288	6
HLD	23	0	5	96
TAP	23	96	4
TAP	23	144	3
HLD	23	192	2	96
TAP	23	288	3
STR	23	336	3
SXL	23	336	3	96	192	6
TAP	24	0	2
TAP	24	96	1
TAP	24	192	0
TAP	24	288	5
TAP	24	288	7
HLD	25	0	6	96
TAP	25	96	7
TAP	25	144	0
HLD	25	192	1	96
TAP	25	288	0
STR	25	336	0
SXR	25	336	0	96	192	5
TAP	26	0	1
TAP	26	96	2
TAP	26	192	3
TAP	26	288	4
TAP	26	288	6
HLD	27	0	2	288
TAP	27	96	0
TAP	27	192	7
TAP	27	288	6
TAP	28	0	6
TAP	28	24	7
TAP	28	48	6
TAP	28	96	1
TAP	28	120	0
TAP	28	144	1
STR	28	192	0
SI_	28	192	0	96	48	3
STR	28	192	7
SI_	28	192	7	96	48	4
TAP	28	240	1
TAP	28	240	6
TAP	29	0	2
HLD	29	0	5	96
TAP	29	96	4
TAP	29	192	0
HLD	29	192	5	96
TAP	29	288	4
TAP	30	0	3
HLD	30	0	7	96
STR	30	96	0
SI_	30	96	0	96	48	4
TAP	30	144	0
STR	30	192	6
SI_	30	192	6	96	48	3
HLD	31	0	2	96
TAP	31	0	4
TAP	31	96	7
HLD	31	192	2	96
TAP	31	192	3
TAP	31	288	0
TAP	32	0	2
TAP	32	0	5
TAP	32	96	6
TAP	32	96	7
TAP	32	144	6
TAP	32	192	0
TAP	32	192	7
TAP	32	264	1
TAP	32	264	6
BRK	32	288	1
BRK	32	288	6
HLD	33	0	2	96
TAP	33	0	5
TAP	33	96	3
HLD	33	192	2	96
TAP	33	192	7
TAP	33	288	3
HLD	34	0	0	96
TAP	34	0	4
STR	34	96	7
SI_	34	96	7	96	48	3
TAP	34	144	7
STR	34	192	1
SI_	34	192	1	96	48	4
HLD	35	0	3	96
STR	35	0	5
SCR	35	0	5	96	48	0
TAP	35	144	3
STR	35	192	2
SCL	35	192	2	96	48	7
HLD	35	192	4	96
TAP	35	336	4
TAP	36	0	4
TAP	36	48	2
TAP	36	72	3
TAP	36	96	1
TAP	36	144	5
TAP	36	168	4
TAP	36	192	6
TAP	36	240	0
TAP	36	240	7
BRK	36	288	2
BRK	36	288	5
STR	37	0	3
SI_	37	0	3	96	48	0
STR	37	0	4
SI_	37	0	4	96	48	7
BRK	37	96	3
BRK	37	96	4
TAP	37	192	1
TAP	37	192	6
TAP	37	288	3
STR	37	288	4
SCL	37	288	4	96	96	7
HLD	38	0	1	144
TAP	38	144	5
BRK	38	192	2
BRK	38	192	6
TAP	38	288	1
TAP	38	336	0
HLD	39	0	6	96
STR	39	0	7
SI_	39	0	7	96	48	4
TAP	39	96	7
STR	39	192	0
SI_	39	192	0	96	48	3
HLD	39	192	1	96
STR	39	288	0
SCL	39	288	0	96	96	3
HLD	40	0	5	144
TAP	40	144	1
BRK	40	192	2
BRK	40	192	6
TAP	41	0	1
TAP	41	0	7
TAP	41	96	5
STR	41	96	7
SI_	41	96	7	96	48	3
TAP	41	144	0
TAP	41	144	6
STR	41	192	1
SI_	41	192	1	96	48	5
TAP	41	192	7
TAP	41	288	1
STR	41	288	4
SCR	41	288	4	96	120	2
HLD	42	0	7	96
TAP	42	144	7
TAP	42	192	0
TAP	42	192	3
TAP	42	288	4
TAP	42	336	5
STR	43	0	6
SI_	43	0	6	96	48	3
TAP	43	0	7
STR	43	96	4
SXR	43	96	4	96	192	7
STR	44	0	4
SXL	44	0	4	96	144	5
SXR	44	0	4	96	144	3
BRK	44	288	2
BRK	44	288	6
STR	45	0	3
SI_	45	0	3	96	48	0
STR	45	0	4
SI_	45	0	4	96	48	7
BRK	45	96	3
BRK	45	96	4
TAP	45	192	1
TAP	45	192	6
STR	45	288	3
SCR	45	288	3	96	96	0
TAP	45	288	4
HLD	46	0	6	144
TAP	46	144	2
BRK	46	192	1
BRK	46	192	5
TAP	46	288	6
TAP	46	336	7
STR	47	0	0
SI_	47	0	0	96	48	3
HLD	47	0	1	96
TAP	47	96	0
HLD	47	192	6	96
STR	47	192	7
SI_	47	192	7	96	48	4
STR	47	288	7
SCR	47	288	7	96	96	4
HLD	48	0	2	144
TAP	48	144	6
BRK	48	192	1
BRK	48	192	5
TAP	49	0	0
TAP	49	0	6
STR	49	96	0
SI_	49	96	0	96	48	4
TAP	49	96	2
TAP	49	144	1
TAP	49	144	7
TAP	49	192	0
STR	49	192	6
SI_	49	192	6	96	48	2
STR	49	288	3
SCL	49	288	3	96	120	5
TAP	49	288	6
HLD	50	0	0	96
TAP	50	144	0
TAP	50	192	4
TAP	50	192	7
TAP	50	288	0
TAP	50	336	1
TAP	51	0	2
STR	51	0	3
SI_	51	0	3	96	48	0
TAP	51	96	3
STR	51	96	5
SXL	51	96	5	96	144	1
STR	52	0	0
SCR	52	0	0	96	240	7
BRK	52	0	7
HLD	53	0	5	96
TAP	53	96	4
TAP	53	144	3
HLD	53	192	2	96
STR	53	288	3
SCL	53	288	3	96	120	7
HLD	54	0	4	96
TAP	54	192	4
TAP	54	192	6
TAP	54	288	3
TAP	54	288	4
HLD	55	0	2	96
TAP	55	96	3
TAP	55	144	4
HLD	55	192	5	96
STR	55	288	4
SCR	55	288	4	96	120	0
HLD	56	0	3	96
TAP	56	192	1
TAP	56	192	3
TAP	56	288	3
TAP	56	288	5
HLD	57	0	6	96
TAP	57	96	5
TAP	57	144	4
HLD	57	192	3	96
STR	57	288	4
SCL	57	288	4	96	120	0
HLD	58	0	5	96
TAP	58	192	0
TAP	58	192	6
TAP	58	288	2
TAP	58	288	4
TAP	59	0	2
STR	59	0	5
SCR	59	0	5	96	192	2
STR	60	0	1
SLR	60	0	1	96	192	0
STR	60	0	6
SLL	60	0	6	96	192	7
TAP	61	0	4
TAP	61	0	5
TAP	61	144	5
TAP	61	192	4
TAP	61	192	5
TAP	61	336	4
TAP	61	336	5
TAP	62	48	3
TAP	62	48	4
TAP	62	144	2
HLD	62	192	2	96
HLD	62	192	3	96
TAP	63	0	2
TAP	63	0	3
TAP	63	144	2
TAP	63	192	2
TAP	63	192	3
TAP	63	336	2
TAP	63	336	3
TAP	64	48	3
TAP	64	48	4
TAP	64	144	5
STR	64	192	4
SI_	64	192	4	96	48	2
STR	64	192	5
SI_	64	192	5	96	48	7
HLD	65	0	1	192
TAP	65	96	3
TAP	65	192	4
TAP	65	288	5
TAP	65	288	7
HLD	66	0	6	192
TAP	66	96	4
TAP	66	192	3
TAP	66	288	0
TAP	66	288	2
TAP	67	0	2
TAP	67	0	3
TAP	67	96	0
TAP	67	96	5
TAP	67	192	4
TAP	67	192	5
TAP	67	288	2
TAP	67	288	7
TAP	68	0	7
TAP	68	48	0
TAP	68	96	7
BRK	68	192	2
BRK	68	192	5
HLD	69	0	1	96
TAP	69	96	0
TAP	69	144	7
HLD	69	192	6	96
TAP	69	288	7
STR	69	336	7
SXR	69	336	7	96	192	3
TAP	70	0	0
TAP	70	48	0
STR	70	96	0
SI_	70	96	0	96	48	2
TAP	70	288	1
TAP	70	288	4
HLD	71	0	2	96
TAP	71	96	3
TAP	71	144	4
HLD	71	192	5	96
TAP	71	288	4
STR	71	336	4
SXL	71	336	4	96	192	0
TAP	72	0	3
TAP	72	48	3
STR	72	96	3
SI_	72	96	3	96	48	1
TAP	72	288	2
TAP	72	288	7
HLD	73	0	1	96
TAP	73	96	0
TAP	73	144	7
HLD	73	192	6	96
TAP	73	288	7
STR	73	336	7
SXR	73	336	7	96	192	3
TAP	74	0	0
TAP	74	48	0
STR	74	96	0
SI_	74	96	0	96	48	2
TAP	74	288	1
TAP	74	288	4
TAP	75	0	5
TAP	75	0	7
TAP	75	96	6
TAP	75	96	7
TAP	75	192	0
TAP	75	192	2
TAP	75	288	0
TAP	75	288	1
TAP	76	0	6
TAP	76	24	7
TAP	76	48	6
TAP	76	96	1
TAP	76	120	0
TAP	76	144	1
STR	76	192	0
SI_	76	192	0	96	48	3
STR	76	192	7
SI_	76	192	7	96	48	4
TAP	76	240	1
TAP	76	240	6
BRK	76	288	0
BRK	76	288	7
TAP	77	0	0
HLD	77	0	1	96
TAP	77	96	3
HLD	77	192	6	96
TAP	77	192	7
TAP	77	288	4
HLD	78	0	0	96
TAP	78	0	7
STR	78	96	6
SI_	78	96	6	96	48	2
TAP	78	144	6
STR	78	192	1
SI_	78	192	1	96	48	4
HLD	79	0	2	96
TAP	79	0	3
TAP	79	96	0
TAP	79	192	4
HLD	79	192	5	96
TAP	79	288	7
TAP	80	0	2
TAP	80	0	5
TAP	80	96	0
TAP	80	96	1
TAP	80	144	1
TAP	80	192	0
TAP	80	192	7
TAP	80	264	2
TAP	80	264	5
BRK	80	288	2
BRK	80	288	5
TAP	81	0	4
HLD	81	0	6	96
TAP	81	96	7
HLD	81	192	1	96
TAP	81	192	3
TAP	81	288	0
TAP	82	0	3
HLD	82	0	4	96
STR	82	96	2
SI_	82	96	2	96	48	6
TAP	82	144	2
STR	82	192	5
SI_	82	192	5	96	48	0
STR	83	0	2
SCL	83	0	2	96	48	7
HLD	83	0	4	96
TAP	83	144	4
HLD	83	192	3	96
STR	83	192	5
SCR	83	192	5	96	48	0
TAP	83	336	3
TAP	84	0	3
TAP	84	0	4
TAP	84	48	6
TAP	84	72	7
TAP	84	96	5
TAP	84	144	1
TAP	84	168	0
TAP	84	192	2
TAP	84	240	0
TAP	84	240	7
BRK	84	288	2
BRK	84	288	5
STR	85	0	3
SI_	85	0	3	96	48	7
STR	85	0	4
SI_	85	0	4	96	48	0
BRK	85	96	3
BRK	85	96	4
TAP	85	192	1
TAP	85	192	6
TAP	85	264	4
STR	85	288	4
SCL	85	288	4	96	96	7
TAP	85	336	2
HLD	86	0	1	144
TAP	86	144	5
BRK	86	192	2
BRK	86	192	6
TAP	86	288	1
TAP	86	336	0
HLD	87	0	6	96
STR	87	0	7
SI_	87	0	7	96	48	3
TAP	87	96	7
STR	87	192	0
SI_	87	192	0	96	48	4
HLD	87	192	1	96
STR	87	288	0
SCL	87	288	0	96	96	3
HLD	88	0	5	144
TAP	88	144	1
BRK	88	192	2
BRK	88	192	6
TAP	89	0	1
TAP	89	0	7
TAP	89	96	5
STR	89	96	7
SI_	89	96	7	96	48	3
TAP	89	144	0
TAP	89	144	6
STR	89	192	1
SI_	89	192	1	96	48	5
TAP	89	192	7
TAP	89	288	1
STR	89	288	4
SCR	89	288	4	96	120	2
HLD	90	0	7	96
TAP	90	144	7
TAP	90	192	0
TAP	90	192	3
TAP	90	288	4
TAP	90	336	5
STR	91	0	6
SV_	91	0	6	96	48	3
TAP	91	0	7
STR	91	96	4
SXR	91	96	4	96	192	7
STR	92	0	4
SI_	92	0	4	96	144	0
SSR	92	0	4	96	144	0
BRK	92	288	2
BRK	92	288	6
STR	93	0	3
SI_	93	0	3	96	48	7
STR	93	0	4
SI_	93	0	4	96	48	0
BRK	93	96	3
BRK	93	96	4
TAP	93	192	1
TAP	93	192	6
TAP	93	264	3
STR	93	288	3
SCR	93	288	3	96	96	0
TAP	93	336	5
HLD	94	0	6	144
TAP	94	144	2
BRK	94	192	1
BRK	94	192	5
TAP	94	288	6
TAP	94	336	7
STR	95	0	0
SI_	95	0	0	96	48	4
HLD	95	0	1	96
TAP	95	96	0
HLD	95	192	6	96
STR	95	192	7
SI_	95	192	7	96	48	3
STR	95	288	7
SCR	95	288	7	96	96	4
HLD	96	0	2	144
TAP	96	144	6
BRK	96	192	1
BRK	96	192	5
TAP	97	0	0
TAP	97	0	6
STR	97	96	0
SI_	97	96	0	96	48	4
TAP	97	96	2
TAP	97	144	1
TAP	97	144	7
TAP	97	192	0
STR	97	192	6
SI_	97	192	6	96	48	2
STR	97	288	3
SCL	97	288	3	96	120	5
TAP	97	288	6
HLD	98	0	0	96
TAP	98	144	0
TAP	98	192	4
TAP	98	192	7
TAP	98	288	7
TAP	98	336	6
STR	99	0	4
SI_	99	0	4	96	48	7
TAP	99	0	5
STR	99	96	2
SXR	99	96	2	96	144	5
TAP	99	96	4
BRK	100	0	1
STR	100	0	6
SCL	100	0	6	96	192	1
STR	101	0	7
SCL	101	0	7	96	192	3
TAP	101	96	3
STR	101	192	3
SCL	101	192	3	96	192	7
TAP	101	288	7
STR	102	0	7
SCL	102	0	7	96	192	3
TAP	102	96	3
TAP	102	192	2
TAP	102	288	1
STR	103	0	0
SCR	103	0	0	96	384	7
STR	103	0	7
SCL	103	0	7	96	384	0
TAP	104	192	1
TAP	104	192	6
TAP	104	264	3
TAP	104	264	4
TAP	104	288	3
TAP	104	288	4
TAP	104	336	2
TAP	104	336	5
BRK	105	0	1
BRK	105	0	6

T_REC_TAP	373
T_REC_BRK	48
T_REC_XTP	0
T_REC_HLD	82
T_REC_XHO	0
T_REC_STR	95
T_REC_BST	0
T_REC_XST	0
T_REC_TTP	0
T_REC_THO	0
T_REC_SLD	97
T_REC_ALL	695
T_NUM_TAP	468
T_NUM_BRK	48
T_NUM_HLD	82
T_NUM_SLD	97
T_NUM_ALL	695
T_JUDGE_TAP	516
T_JUDGE_HLD	184
T_JUDGE_SLD	97
T_JUDGE_ALL	797
TTM_EACHPAIRS	171
TTM_SCR_TAP	234000
TTM_SCR_BRK	124800
TTM_SCR_HLD	82000
TTM_SCR_SLD	145500
TTM_SCR_ALL	586300
TTM_SCR_S	564100
TTM_SCR_SS	581500
TTM_RAT_ACV	10082

