VERSION	0.00.00	1.03.00
FES_MODE	0
BPM_DEF	175.000	175.000	175.000	175.000
MET_DEF	4	4
RESOLUTION	384
CLK_DEF	384
COMPATIBLE_CODE	MA2

BPM	0	0	175.000

HLD	1	0	0	384
STR	2	0	7
SCL	2	0	7	96	672	0
STR	5	0	2
SI_	5	0	2	96	48	4
TAP	5	96	5
TAP	5	144	5
TAP	5	192	5
TAP	5	288	3
TAP	5	288	4
STR	6	0	5
SI_	6	0	5	96	48	3
TAP	6	96	2
TAP	6	144	2
TAP	6	192	2
TAP	6	288	3
TAP	6	288	4
STR	7	0	2
SI_	7	0	2	96	48	4
TAP	7	96	5
TAP	7	144	5
TAP	7	192	5
TAP	7	288	3
TAP	7	288	4
STR	8	0	5
SI_	8	0	5	96	48	3
TAP	8	96	2
TAP	8	144	2
TAP	8	192	2
TAP	8	288	3
TAP	8	288	4
STR	9	0	1
SI_	9	0	1	96	48	3
TAP	9	0	4
TAP	9	96	4
TAP	9	144	5
TAP	9	192	6
TAP	9	288	3
TAP	9	288	5
STR	10	0	6
SI_	10	0	6	96	48	4
TAP	10	96	3
TAP	10	144	2
TAP	10	192	1
TAP	10	288	2
TAP	10	288	4
STR	11	0	1
SI_	11	0	1	96	48	3
TAP	11	96	4
TAP	11	144	5
TAP	11	192	6
TAP	11	288	3
TAP	11	288	5
STR	12	0	6
SI_	12	0	6	96	48	4
TAP	12	96	3
TAP	12	144	2
TAP	12	192	1
BRK	12	288	7
STR	13	0	2
SCR	13	0	2	96	48	5
TAP	13	96	6
TAP	13	144	6
STR	13	192	5
SCL	13	192	5	96	48	2
TAP	13	288	1
TAP	13	336	1
STR	14	0	0
SCR	14	0	0	96	48	3
STR	14	96	7
SV_	14	96	7	96	48	4
TAP	14	192	0
TAP	14	288	3
TAP	14	288	4
STR	15	0	5
SCL	15	0	5	96	48	2
TAP	15	96	1
TAP	15	144	1
STR	15	192	2
SCR	15	192	2	96	48	5
TAP	15	288	6
TAP	15	336	6
STR	16	0	7
SCL	16	0	7	96	48	4
STR	16	96	0
SV_	16	96	0	96	48	3
TAP	16	192	7
TAP	16	288	3
TAP	16	288	4
STR	17	0	2
SCR	17	0	2	96	48	5
TAP	17	96	6
TAP	17	144	6
STR	17	192	5
SCL	17	192	5	96	48	2
TAP	17	288	1
TAP	17	336	1
STR	18	0	0
SI_	18	0	0	96	48	4
STR	18	96	7
SI_	18	96	7	96	48	3
TAP	18	192	0
TAP	18	288	3
TAP	18	288	4
STR	19	0	5
SCL	19	0	5	96	48	2
TAP	19	96	1
TAP	19	144	1
STR	19	192	2
SCR	19	192	2	96	48	5
TAP	19	288	6
TAP	19	336	6
STR	20	0	0
SI_	20	0	0	96	48	4
STR	20	0	7
SI_	20	0	7	96	48	3
TAP	20	192	1
TAP	20	192	6
STR	21	0	2
SI_	21	0	2	96	48	5
TAP	21	96	7
TAP	21	144	7
STR	21	192	6
SI_	21	192	6	96	48	1
HLD	21	288	2	96
STR	22	0	3
SI_	22	0	3	96	48	7
STR	22	96	0
SI_	22	96	0	96	48	4
TAP	22	192	7
TAP	22	288	1
TAP	22	288	6
STR	23	0	5
SI_	23	0	5	96	48	2
TAP	23	96	0
TAP	23	144	0
STR	23	192	1
SI_	23	192	1	96	48	6
HLD	23	288	5	96
STR	24	0	4
SI_	24	0	4	96	48	0
STR	24	96	7
SI_	24	96	7	96	48	3
TAP	24	192	0
TAP	24	288	1
TAP	24	288	6
STR	25	0	2
SI_	25	0	2	96	48	5
TAP	25	96	7
TAP	25	144	7
STR	25	192	6
SI_	25	192	6	96	48	1
HLD	25	288	2	96
STR	26	0	3
SI_	26	0	3	96	48	7
STR	26	96	0
SI_	26	96	0	96	48	4
STR	26	192	6
SI_	26	192	6	96	48	1
STR	26	288	2
SCL	26	288	2	96	192	5
TAP	27	0	3
TAP	27	288	3
STR	27	288	5
SCR	27	288	5	96	192	2
TAP	28	0	4
TAP	28	288	3
TAP	28	288	4
STR	29	0	0
SI_	29	0	0	96	48	3
TAP	29	0	1
TAP	29	96	1
TAP	29	192	6
STR	29	192	7
SI_	29	192	7	96	48	4
TAP	29	288	6
STR	30	0	4
SI_	30	0	4	96	48	7
TAP	30	0	5
TAP	30	96	5
TAP	30	192	2
STR	30	192	3
SI_	30	192	3	96	48	0
TAP	30	288	2
STR	31	0	6
SI_	31	0	6	96	48	2
STR	31	96	0
SI_	31	96	0	96	48	4
STR	31	192	7
SI_	31	192	7	96	48	3
STR	31	288	0
SCR	31	288	0	96	96	5
TAP	32	0	6
TAP	32	144	7
TAP	32	192	1
TAP	32	192	6
TAP	33	0	6
STR	33	0	7
SI_	33	0	7	96	48	4
TAP	33	96	5
STR	33	192	0
SI_	33	192	0	96	48	3
TAP	33	192	1
TAP	33	288	2
TAP	34	0	2
STR	34	0	3
SI_	34	0	3	96	48	0
TAP	34	96	1
STR	34	192	4
SI_	34	192	4	96	48	7
TAP	34	192	5
TAP	34	288	6
STR	35	0	0
SCR	35	0	0	96	48	3
TAP	35	48	0
TAP	35	96	6
TAP	35	144	6
STR	35	192	7
SCL	35	192	7	96	48	4
TAP	35	240	7
STR	35	288	3
SCL	35	288	3	96	192	4
TAP	35	336	3
TAP	36	0	4
TAP	36	288	3
TAP	36	288	4
STR	37	0	1
SI_	37	0	1	96	48	5
TAP	37	0	4
STR	37	96	6
SI_	37	96	6	96	48	2
STR	37	192	3
SI_	37	192	3	96	48	0
STR	37	288	5
SCR	37	288	5	96	96	2
TAP	38	0	0
TAP	38	144	0
TAP	38	144	7
TAP	38	192	1
TAP	38	192	6
STR	38	288	3
SI_	38	288	3	96	48	7
TAP	38	288	4
TAP	38	336	5
TAP	39	0	6
TAP	39	96	1
STR	39	96	4
SI_	39	96	4	96	48	0
TAP	39	192	3
STR	39	288	0
SI_	39	288	0	96	48	4
STR	39	288	1
SI_	39	288	1	96	48	5
TAP	40	96	6
TAP	40	96	7
TAP	40	144	6
TAP	40	144	7
TAP	40	192	0
TAP	40	192	5
TAP	41	0	2
TAP	41	0	6
STR	41	96	1
SI_	41	96	1	96	48	4
STR	41	96	5
SI_	41	96	5	96	48	0
TAP	41	144	1
TAP	41	144	5
TAP	41	288	3
STR	41	288	7
SCL	41	288	7	96	96	2
TAP	42	0	1
TAP	42	144	0
TAP	42	192	1
TAP	42	192	7
TAP	42	288	5
TAP	42	336	5
TAP	43	0	4
TAP	43	0	6
STR	43	96	1
SI_	43	96	1	96	48	4
TAP	43	96	3
STR	43	192	6
SI_	43	192	6	96	48	3
TAP	43	240	6
STR	43	288	2
SCL	43	288	2	96	192	5
TAP	43	336	2
TAP	44	0	3
TAP	45	0	3
STR	45	0	6
SI_	45	0	6	96	48	2
STR	45	96	1
SI_	45	96	1	96	48	5
STR	45	192	4
SI_	45	192	4	96	48	7
STR	45	288	2
SCL	45	288	2	96	96	5
TAP	46	0	7
TAP	46	144	0
TAP	46	144	7
TAP	46	192	1
TAP	46	192	6
TAP	46	288	3
STR	46	288	4
SI_	46	288	4	96	48	0
TAP	46	336	2
TAP	47	0	1
STR	47	96	3
SI_	47	96	3	96	48	7
TAP	47	96	6
TAP	47	192	4
STR	47	288	6
SCL	47	288	6	96	48	3
STR	47	288	7
SCR	47	288	7	96	48	2
TAP	48	96	0
TAP	48	96	1
TAP	48	144	0
TAP	48	144	1
TAP	48	192	2
TAP	48	192	7
TAP	49	0	1
TAP	49	0	5
STR	49	96	2
SI_	49	96	2	96	48	7
STR	49	96	6
SI_	49	96	6	96	48	3
TAP	49	144	2
TAP	49	144	6
STR	49	288	0
SCR	49	288	0	96	96	5
TAP	49	288	4
TAP	50	0	6
TAP	50	144	7
TAP	50	192	0
TAP	50	192	6
TAP	50	288	2
TAP	50	336	2
TAP	51	0	1
TAP	51	0	3
TAP	51	96	4
STR	51	96	6
SI_	51	96	6	96	48	3
STR	51	192	1
SI_	51	192	1	96	48	4
TAP	51	240	1
STR	51	288	5
SCR	51	288	5	96	192	2
TAP	51	336	5
TAP	52	0	4
STR	53	0	3
SCL	53	0	3	96	480	4
TAP	53	0	4
TAP	53	192	4
TAP	53	288	4
TAP	54	0	3
TAP	54	96	3
TAP	54	192	2
TAP	54	288	2
TAP	55	0	3
STR	55	0	4
SCR	55	0	4	96	480	3
TAP	55	192	3
TAP	55	288	3
TAP	56	0	4
TAP	56	96	4
TAP	56	192	5
TAP	56	288	6
STR	57	0	0
SCR	57	0	0	96	480	7
TAP	57	0	7
TAP	57	192	7
TAP	57	288	7
TAP	58	0	0
TAP	58	96	0
TAP	58	192	1
TAP	58	288	1
TAP	59	0	0
STR	59	0	7
SCL	59	0	7	96	480	0
TAP	59	192	0
TAP	59	288	0
TAP	60	0	7
BRK	60	288	0
STR	61	0	1
SI_	61	0	1	96	48	3
TAP	61	0	4
STR	61	192	1
SI_	61	192	1	96	48	3
TAP	61	192	4
STR	62	0	1
SI_	62	0	1	96	48	3
TAP	62	0	4
TAP	62	96	4
STR	62	192	1
SI_	62	192	1	96	48	3
TAP	62	192	4
TAP	62	288	5
TAP	63	0	3
STR	63	0	6
SI_	63	0	6	96	48	4
TAP	63	192	3
STR	63	192	6
SI_	63	192	6	96	48	4
TAP	64	0	3
STR	64	0	6
SI_	64	0	6	96	48	4
TAP	64	96	3
TAP	64	192	3
STR	64	192	6
SI_	64	192	6	96	48	4
TAP	64	288	2
STR	65	0	1
SI_	65	0	1	96	48	3
HLD	65	0	4	96
STR	65	192	1
SI_	65	192	1	96	48	3
HLD	65	192	4	96
STR	66	0	1
SI_	66	0	1	96	48	3
TAP	66	0	4
TAP	66	96	4
STR	66	192	1
SI_	66	192	1	96	48	3
TAP	66	192	4
TAP	66	288	5
HLD	67	0	3	96
STR	67	0	6
SI_	67	0	6	96	48	4
HLD	67	192	3	96
STR	67	192	6
SI_	67	192	6	96	48	4
TAP	68	0	3
STR	68	0	6
SI_	68	0	6	96	48	4
TAP	68	96	3
TAP	68	192	3
TAP	68	192	6
BRK	68	288	0
STR	69	0	5
SI_	69	0	5	96	48	2
TAP	69	96	0
TAP	69	144	0
STR	69	192	1
SI_	69	192	1	96	48	4
HLD	69	288	5	96
STR	70	0	4
SCL	70	0	4	96	48	1
STR	70	96	7
SI_	70	96	7	96	48	3
TAP	70	192	0
TAP	70	288	1
TAP	70	288	5
STR	71	0	2
SI_	71	0	2	96	48	5
TAP	71	96	7
TAP	71	144	7
STR	71	192	6
SI_	71	192	6	96	48	3
HLD	71	288	2	96
STR	72	0	3
SCR	72	0	3	96	48	6
STR	72	96	0
SI_	72	96	0	96	48	4
TAP	72	192	7
TAP	72	288	2
TAP	72	288	6
STR	73	0	5
SI_	73	0	5	96	48	2
TAP	73	96	0
TAP	73	144	0
STR	73	192	1
SI_	73	192	1	96	48	4
HLD	73	288	5	96
STR	74	0	4
SI_	74	0	4	96	48	0
STR	74	96	7
SI_	74	96	7	96	48	3
STR	74	192	1
SI_	74	192	1	96	48	6
STR	74	288	5
SCR	74	288	5	96	192	2
TAP	75	0	4
STR	75	288	2
SCL	75	288	2	96	192	5
TAP	75	288	4
TAP	76	0	3
TAP	76	288	3
TAP	76	288	4
TAP	77	0	6
STR	77	0	7
SI_	77	0	7	96	48	3
TAP	77	96	6
STR	77	192	0
SI_	77	192	0	96	48	4
TAP	77	192	1
TAP	77	288	1
TAP	78	0	2
STR	78	0	3
SI_	78	0	3	96	48	7
TAP	78	96	2
STR	78	192	4
SI_	78	192	4	96	48	0
TAP	78	192	5
TAP	78	288	5
STR	79	0	1
SI_	79	0	1	96	48	5
STR	79	96	7
SI_	79	96	7	96	48	3
STR	79	192	0
SI_	79	192	0	96	48	4
STR	79	288	7
SCL	79	288	7	96	96	2
TAP	80	0	1
TAP	80	144	0
TAP	80	192	1
TAP	80	192	6
STR	81	0	0
SI_	81	0	0	96	48	4
TAP	81	0	1
TAP	81	96	2
TAP	81	192	6
STR	81	192	7
SI_	81	192	7	96	48	3
TAP	81	288	5
STR	82	0	4
SI_	82	0	4	96	48	0
TAP	82	0	5
TAP	82	96	6
TAP	82	192	2
STR	82	192	3
SI_	82	192	3	96	48	7
TAP	82	288	1
STR	83	0	7
SCL	83	0	7	96	48	4
TAP	83	48	7
TAP	83	96	1
TAP	83	144	1
STR	83	192	0
SCR	83	192	0	96	48	3
TAP	83	240	0
STR	83	288	4
SCR	83	288	4	96	192	3
TAP	83	336	4
TAP	84	0	3
TAP	84	288	3
TAP	84	288	4
TAP	85	0	3
STR	85	0	6
SI_	85	0	6	96	48	2
STR	85	96	1
SI_	85	96	1	96	48	5
STR	85	192	4
SI_	85	192	4	96	48	7
STR	85	288	2
SCL	85	288	2	96	96	5
TAP	86	0	7
TAP	86	144	0
TAP	86	144	7
TAP	86	192	1
TAP	86	192	6
TAP	86	288	3
STR	86	288	5
SI_	86	288	5	96	48	0
TAP	86	336	2
TAP	87	0	1
STR	87	96	2
SI_	87	96	2	96	48	7
TAP	87	96	6
TAP	87	192	4
STR	87	288	4
SI_	87	288	4	96	48	0
STR	87	288	5
SI_	87	288	5	96	48	1
TAP	88	96	0
TAP	88	96	1
TAP	88	144	0
TAP	88	144	1
TAP	88	192	2
TAP	88	192	7
TAP	89	0	1
TAP	89	0	5
STR	89	96	2
SI_	89	96	2	96	48	7
STR	89	96	6
SI_	89	96	6	96	48	3
TAP	89	144	2
TAP	89	144	6
STR	89	288	0
SCR	89	288	0	96	96	5
TAP	89	288	4
TAP	90	0	6
TAP	90	144	7
TAP	90	192	0
TAP	90	192	6
TAP	90	288	2
TAP	90	336	2
TAP	91	0	1
TAP	91	0	3
TAP	91	96	4
STR	91	96	6
SI_	91	96	6	96	48	3
STR	91	192	1
SI_	91	192	1	96	48	4
TAP	91	240	1
STR	91	288	5
SCR	91	288	5	96	192	2
TAP	91	336	5
TAP	92	0	4
STR	93	0	1
SI_	93	0	1	96	48	5
TAP	93	0	4
STR	93	96	6
SI_	93	96	6	96	48	2
STR	93	192	3
SI_	93	192	3	96	48	0
STR	93	288	5
SCR	93	288	5	96	96	2
TAP	94	0	0
TAP	94	144	0
TAP	94	144	7
TAP	94	192	1
TAP	94	192	6
STR	94	288	3
SI_	94	288	3	96	48	7
TAP	94	288	4
TAP	94	336	5
TAP	95	0	6
TAP	95	96	1
STR	95	96	4
SI_	95	96	4	96	48	0
TAP	95	192	3
STR	95	288	2
SCL	95	288	2	96	48	7
STR	95	288	3
SCR	95	288	3	96	48	6
TAP	96	96	6
TAP	96	96	7
TAP	96	144	6
TAP	96	144	7
TAP	96	192	0
TAP	96	192	5
TAP	97	0	2
TAP	97	0	6
STR	97	96	1
SI_	97	96	1	96	48	4
STR	97	96	5
SI_	97	96	5	96	48	0
TAP	97	144	1
TAP	97	144	5
TAP	97	288	3
STR	97	288	7
SCL	97	288	7	96	96	2
TAP	98	0	1
TAP	98	144	0
TAP	98	192	0
TAP	98	192	7
TAP	98	288	5
TAP	98	336	5
TAP	99	0	4
TAP	99	0	6
STR	99	96	1
SI_	99	96	1	96	48	4
TAP	99	96	3
STR	99	192	6
SI_	99	192	6	96	48	3
TAP	99	240	6
STR	99	288	2
SCL	99	288	2	96	192	5
TAP	99	336	2
TAP	100	0	3
TAP	100	288	3
STR	100	288	4
SCR	100	288	4	96	576	2
TAP	101	0	3
TAP	101	96	3
TAP	101	192	4
TAP	101	288	4
TAP	102	0	5
TAP	102	96	5
TAP	102	192	4
STR	102	288	3
SCL	102	288	3	96	384	4
TAP	103	0	4
TAP	104	0	3
TAP	104	96	3
TAP	104	192	3
TAP	104	264	4
TAP	104	288	3
TAP	104	336	2
TAP	104	336	5
BRK	105	0	1
BRK	105	0	6

T_REC_TAP	353
T_REC_BRK	5
T_REC_XTP	0
T_REC_HLD	11
T_REC_XHO	0
T_REC_STR	162
T_REC_BST	0
T_REC_XST	0
T_REC_TTP	0
T_REC_THO	0
T_REC_SLD	162
T_REC_ALL	693
T_NUM_TAP	515
T_NUM_BRK	5
T_NUM_HLD	11
T_NUM_SLD	162
T_NUM_ALL	693
T_JUDGE_TAP	520
T_JUDGE_HLD	28
T_JUDGE_SLD	162
T_JUDGE_ALL	710
TTM_EACHPAIRS	128
TTM_SCR_TAP	257500
TTM_SCR_BRK	13000
TTM_SCR_HLD	11000
TTM_SCR_SLD	243000
TTM_SCR_ALL	524500
TTM_SCR_S	508300
TTM_SCR_SS	524000
TTM_RAT_ACV	10009

